<?xml version="1.0" standalone="no"?>
<!DOCTYPE svg PUBLIC "-//W3C//DTD SVG 1.1//EN" "http://www.w3.org/Graphics/SVG/1.1/DTD/svg11.dtd" >
<svg xmlns="http://www.w3.org/2000/svg">
<metadata>Generated by IcoMoon</metadata>
<defs>
<font id="icomoon" horiz-adv-x="1024">
<font-face units-per-em="1024" ascent="960" descent="-64" />
<missing-glyph horiz-adv-x="1024" />
<glyph unicode="&#x20;" horiz-adv-x="512" d="" />
<glyph unicode="&#xe900;" glyph-name="cookapps1" d="M818.316 513.856c29.779-0.005 56.297-2.166 56.297-2.166 1.091-0.041 35.193-1.587 35.728-34.12 0.183-11.435 0.24-20.73 0.235-27.995l-0.004-2.347c-0.029-11.36-0.207-17.118-0.229-17.793l-0.001-0.091c0.067-1.068 2.141-38.43-34.651-38.43v0l-3.484-0.002c-32.681-0.033-36.753-0.521-36.988-0.554-0.012-0.002-9.463 2.205-9.662-14.839-0.114-10.174-0.456-19.085-0.456-24.48 0-15.184-8.53-13.463-12.090-13.998-1.152-0.171-4.040-0.235-7.424-0.244l-2.080 0.001c-0.353 0.001-0.709 0.003-1.066 0.005l-2.147 0.017c-5.712 0.056-11.108 0.19-11.108 0.19v0l3.152 147.599c0 0 0 0.009 0 0.027l0.004 0.208c0.068 2.764 1.363 29.018 25.973 29.012zM687.446 513.856c29.779-0.005 56.295-2.166 56.295-2.166 1.091-0.041 35.198-1.587 35.733-34.12 0.154-9.53 0.219-17.572 0.234-24.193l0.002-4.994c-0.021-12.907-0.236-19.015-0.236-19.015 0.008-0.132 0.036-0.613 0.041-1.392l-0.002-0.738c-0.092-8.072-2.698-36.324-34.694-36.324v0l-3.483-0.002c-33.803-0.034-36.996-0.556-36.996-0.556-0.435 0.092-9.456 1.81-9.653-14.837-0.112-10.174-0.453-19.085-0.453-24.48 0-15.184-8.53-13.463-12.095-13.998-1.151-0.171-4.038-0.235-7.422-0.244l-2.079 0.001c-6.711 0.023-14.317 0.212-14.317 0.212v0l3.15 147.599 0.001 0.106c0.031 1.911 0.91 29.147 25.973 29.141zM84.793 544.513c7.902-0.080 39.509-2.476 39.509-35.723-0.037-13.721-9.509-16.085-15.85-16.085v0h-18.225l-0.169 7.905-0.001 0.062c-0.025 0.96-0.768 12.713-22.384 12.4-25.979-0.376-22.191-24.919-22.191-33.033 0-3.399 0.484-13.884 1.048-24.935l0.299-5.783c0.705-13.452 1.423-26.062 1.423-26.062v0l0.002-0.086c0.041-1.182 0.875-14.178 17.949-14.178 19.538 0 17.71 15.796 17.71 15.796v18.955h40.052l0.002-26.008c0.103-0.949 4.307-42.227-43.849-42.227v0l-33.086 0.001c-2.001 0.028-42.537 1.138-43.769 45.486-1.51 54.367-3.242 78.525-3.242 78.525-0.004 0.085-0.011 0.267-0.015 0.558l-0.001 1.184c0.103 8.276 2.658 43.221 38.439 43.221v0l44.6 0.001c0.079 0.004 0.351 0.016 0.789 0.022zM534.236 559.204l68.228-1.452c0 0 0.511 0.030 1.425 0.037l0.759-0.001c9-0.074 42.752-2.637 42.752-36.892v0l0.003-132.162c0.073-0.604 1.373-12.979-14.081-12.979v0h-20.557l0.002 52.979c0.027 0.039 0.043 0.064 0.060 0.096l0.035 0.073c0.030 0.069 0.059 0.156 0.074 0.259l0.011 0.13c0.003 0.137-0.020 0.295-0.093 0.466l-0.089 0.176c-0.841 1.412-5.124 3.575-23.407 3.657l-2.411-0.001c-4.977-0.026-10.896-0.195-17.933-0.555v0l-13.478-52.405-28.276 0.002c-3.101 0.045-10.765 1.032-8.338 14.099 0.618 3.369 1.268 7.231 2.573 12.429 2.613 10.459 7.642 32.127 12.826 54.331l1.263 5.406c7.301 31.23 14.549 61.81 15.47 62.118v0l-36.357 1.729 2.446 16.522-0.001 0.075c0.003 1.010 0.421 11.862 17.095 11.862v0zM432.576 550.686l2.707-93.696 6.1 0.003c1.038 0.070 7.524 1.257 16.64 19.499 12.011 24.043 15.885 36.283 15.885 36.283v0h37.154c0 0 2.496-2.136 0-6.487-2.486-4.361-26.521-46.557-31.931-53.29 0 0 10.289-0.34 15.699-13.88 5.412-13.54 16.163-35.523 16.163-35.523s10.295-18.534-3.321-20.377c-17.177-2.324-29.087-2.959-29.087-2.959v0l-15.041 45.32c0 0-3.362 9.216-15.267 8.127 0 0-11.91 0.54-12.139-8.652-0.029-1.116-0.045-2.867-0.050-5.044v-4.11c0.024-12.979 0.253-33.625 0.278-35.82l0.002-0.191c0 0-29.23-8.095-30.853 3.815-0.715 5.241-4.050 35.947-7.561 68.694l-0.48 4.476c-0.080 0.747-0.16 1.495-0.24 2.243l-0.72 6.732c-3.674 34.362-7.175 67.463-7.712 72.54l-0.053 0.501c-0.012 0.113-0.018 0.17-0.018 0.17s-2.889 11.628 10.437 11.628v0h33.409zM973.231 525.439c38.98 0 47.634-9.967 47.634-30.536 0-15.719-9.352-16.771-11.477-16.807l-0.268 0.001c-0.103 0.002-0.158 0.007-0.158 0.007v0h-24.903c0 0 3.39 20.996-8.11 22.208-8.625 0.909-20.572 1.63-23.823-8.12-3.242-9.755 2.712-16.035 10.82-20.21 3.216-1.654 10.244-4.972 17.563-8.378l3.475-1.614c10.021-4.645 19.544-8.987 19.544-8.987 23.825-10.855 25.863-44.848 11.25-61.092-14.613-16.249-51.278-15.31-71.311-9.553-22.601 6.478-25.078 24.078-25.151 33.357l0.002 1.138c0.021 1.816 0.117 3.218 0.117 4.018 0 10.145 13.385 10.131 13.385 10.131h21.91c-0.549-16.252-1.619-22.208 14.081-22.208 15.698 0 16.795 5.413 16.795 12.991 0 9.216-6.495 12.456-6.495 12.456s-0.030 0.015-0.089 0.045l-0.267 0.134c-1.605 0.801-8.641 4.215-21.308 9.026-32.649 12.419-36.043 28.71-36.043 28.71s-1.839 5.196-1.839 19.282c0 30.81 29.506 34.001 37.882 34.001zM210.464 514.406c45.496 0 42.771-29.766 42.771-29.766v-56.916c0-34.663-30.857-36.276-30.857-36.276s-21.657-2.723-54.673-2.717c-36.361 0.010-33.231 30.87-33.231 30.87v0 65.039c0 28.29 32.074 29.701 34.212 29.764zM339.812 514.406c45.499 0 42.772-29.766 42.772-29.766v-56.916c0-34.663-30.857-36.276-30.857-36.276s-21.65-2.723-54.668-2.717c-36.37 0.010-33.233 30.87-33.233 30.87v0 65.039c0 28.29 32.071 29.701 34.209 29.764zM213.308 490.726h-0.594c-5.081-0.057-32.774-1.751-36.516-31.713 0 0-4.484 10.245-11.388 12.169v0l-0.016-17.24c0 0-4.131-37.834 27.423-37.797 34.414 0.032 31.134 28.577 25.088 49.041 0 0-3.985-3.125-4.142-11.798-0.152-8.674-9.414 29.657 0.351 37.333v0l-0.092 0.003c-0.031 0.001-0.068 0.001-0.114 0.002zM342.655 490.726h-0.594c-5.081-0.057-32.777-1.751-36.516-31.713 0 0-4.482 10.245-11.387 12.169v0l-0.014-17.24c0 0-4.137-37.834 27.417-37.797 34.419 0.032 31.14 28.577 25.096 49.041 0 0-3.993-3.125-4.142-11.798-0.156-8.674-9.418 29.657 0.347 37.333v0l-0.092 0.003c-0.031 0.001-0.068 0.001-0.114 0.002zM844.612 476.47c0 0-13.16 9.378-13.16-8.931v0l0.002-38.848c0.041-1.587 0.702-10.93 10.672-6.685 0.419 0.179 0.838 0.358 1.257 0.538l2.513 1.085c17.158 7.449 33.725 15.463 35.229 16.192l0.111 0.054c0 0 14.244 6.547-0.48 15.327-21.692 12.928-36.144 21.269-36.144 21.269zM713.741 476.47c0 0-13.154 9.378-13.154-8.931v0-38.624c0 0-0.204-11.541 10.673-6.91 0.419 0.179 0.838 0.358 1.257 0.538l2.513 1.085c17.156 7.449 33.725 15.463 35.229 16.192l0.111 0.054c0 0 14.244 6.547-0.48 15.327-21.697 12.928-36.149 21.269-36.149 21.269zM600.3 531.193c-13.5-0.060-14.778-18.417-19.963-43.867-3.237-15.926-6.789-27.085 8.885-27.085v0h27.86v59.229c0 0 0.009 0.097 0.012 0.275l-0.002 0.323c-0.065 2.397-1.355 11.183-16.791 11.125z" />
<glyph unicode="&#xe901;" glyph-name="cookapps2" d="M818.316 513.856c29.779-0.005 56.297-2.166 56.297-2.166 1.091-0.041 35.193-1.587 35.728-34.12 0.183-11.435 0.24-20.73 0.235-27.995l-0.004-2.347c-0.029-11.36-0.207-17.118-0.229-17.793l-0.001-0.091c0.067-1.068 2.141-38.43-34.651-38.43v0l-3.484-0.002c-32.681-0.033-36.753-0.521-36.988-0.554-0.012-0.002-9.463 2.205-9.662-14.839-0.114-10.174-0.456-19.085-0.456-24.48 0-15.184-8.53-13.463-12.090-13.998-1.152-0.171-4.040-0.235-7.424-0.244l-2.080 0.001c-0.353 0.001-0.709 0.003-1.066 0.005l-2.147 0.017c-5.712 0.056-11.108 0.19-11.108 0.19v0l3.152 147.599c0 0 0 0.009 0 0.027l0.004 0.208c0.068 2.764 1.363 29.018 25.973 29.012zM687.446 513.856c29.779-0.005 56.295-2.166 56.295-2.166 1.091-0.041 35.198-1.587 35.733-34.12 0.154-9.53 0.219-17.572 0.234-24.193l0.002-4.994c-0.021-12.907-0.236-19.015-0.236-19.015 0.008-0.132 0.036-0.613 0.041-1.392l-0.002-0.738c-0.092-8.072-2.698-36.324-34.694-36.324v0l-3.483-0.002c-33.803-0.034-36.996-0.556-36.996-0.556-0.435 0.092-9.456 1.81-9.653-14.837-0.112-10.174-0.453-19.085-0.453-24.48 0-15.184-8.53-13.463-12.095-13.998-1.151-0.171-4.038-0.235-7.422-0.244l-2.079 0.001c-6.711 0.023-14.317 0.212-14.317 0.212v0l3.15 147.599 0.001 0.106c0.031 1.911 0.91 29.147 25.973 29.141zM84.793 544.513c7.902-0.080 39.509-2.476 39.509-35.723-0.037-13.721-9.509-16.085-15.85-16.085v0h-18.225l-0.169 7.905-0.001 0.062c-0.025 0.96-0.768 12.713-22.384 12.4-25.979-0.376-22.191-24.919-22.191-33.033 0-3.399 0.484-13.884 1.048-24.935l0.299-5.783c0.705-13.452 1.423-26.062 1.423-26.062v0l0.002-0.086c0.041-1.182 0.875-14.178 17.949-14.178 19.538 0 17.71 15.796 17.71 15.796v18.955h40.052l0.002-26.008c0.103-0.949 4.307-42.227-43.849-42.227v0l-33.086 0.001c-2.001 0.028-42.537 1.138-43.769 45.486-1.51 54.367-3.242 78.525-3.242 78.525-0.004 0.085-0.011 0.267-0.015 0.558l-0.001 1.184c0.103 8.276 2.658 43.221 38.439 43.221v0l44.6 0.001c0.079 0.004 0.351 0.016 0.789 0.022zM534.236 559.204l68.228-1.452c0 0 0.511 0.030 1.425 0.037l0.759-0.001c9-0.074 42.752-2.637 42.752-36.892v0l0.003-132.162c0.073-0.604 1.373-12.979-14.081-12.979v0h-20.557l0.002 52.979c0.027 0.039 0.043 0.064 0.060 0.096l0.035 0.073c0.030 0.069 0.059 0.156 0.074 0.259l0.011 0.13c0.003 0.137-0.020 0.295-0.093 0.466l-0.089 0.176c-0.841 1.412-5.124 3.575-23.407 3.657l-2.411-0.001c-4.977-0.026-10.896-0.195-17.933-0.555v0l-13.478-52.405-28.276 0.002c-3.101 0.045-10.765 1.032-8.338 14.099 0.618 3.369 1.268 7.231 2.573 12.429 2.613 10.459 7.642 32.127 12.826 54.331l1.263 5.406c7.301 31.23 14.549 61.81 15.47 62.118v0l-36.357 1.729 2.446 16.522-0.001 0.075c0.003 1.010 0.421 11.862 17.095 11.862v0zM432.576 550.686l2.707-93.696 6.1 0.003c1.038 0.070 7.524 1.257 16.64 19.499 12.011 24.043 15.885 36.283 15.885 36.283v0h37.154c0 0 2.496-2.136 0-6.487-2.486-4.361-26.521-46.557-31.931-53.29 0 0 10.289-0.34 15.699-13.88 5.412-13.54 16.163-35.523 16.163-35.523s10.295-18.534-3.321-20.377c-17.177-2.324-29.087-2.959-29.087-2.959v0l-15.041 45.32c0 0-3.362 9.216-15.267 8.127 0 0-11.91 0.54-12.139-8.652-0.029-1.116-0.045-2.867-0.050-5.044v-4.11c0.024-12.979 0.253-33.625 0.278-35.82l0.002-0.191c0 0-29.23-8.095-30.853 3.815-0.715 5.241-4.050 35.947-7.561 68.694l-0.48 4.476c-0.080 0.747-0.16 1.495-0.24 2.243l-0.72 6.732c-3.674 34.362-7.175 67.463-7.712 72.54l-0.053 0.501c-0.012 0.113-0.018 0.17-0.018 0.17s-2.889 11.628 10.437 11.628v0h33.409zM973.231 525.439c38.98 0 47.634-9.967 47.634-30.536 0-15.719-9.352-16.771-11.477-16.807l-0.268 0.001c-0.103 0.002-0.158 0.007-0.158 0.007v0h-24.903c0 0 3.39 20.996-8.11 22.208-8.625 0.909-20.572 1.63-23.823-8.12-3.242-9.755 2.712-16.035 10.82-20.21 3.216-1.654 10.244-4.972 17.563-8.378l3.475-1.614c10.021-4.645 19.544-8.987 19.544-8.987 23.825-10.855 25.863-44.848 11.25-61.092-14.613-16.249-51.278-15.31-71.311-9.553-22.601 6.478-25.078 24.078-25.151 33.357l0.002 1.138c0.021 1.816 0.117 3.218 0.117 4.018 0 10.145 13.385 10.131 13.385 10.131h21.91c-0.549-16.252-1.619-22.208 14.081-22.208 15.698 0 16.795 5.413 16.795 12.991 0 9.216-6.495 12.456-6.495 12.456s-0.030 0.015-0.089 0.045l-0.267 0.134c-1.605 0.801-8.641 4.215-21.308 9.026-32.649 12.419-36.043 28.71-36.043 28.71s-1.839 5.196-1.839 19.282c0 30.81 29.506 34.001 37.882 34.001zM210.464 514.406c45.496 0 42.771-29.766 42.771-29.766v-56.916c0-34.663-30.857-36.276-30.857-36.276s-21.657-2.723-54.673-2.717c-36.361 0.010-33.231 30.87-33.231 30.87v0 65.039c0 28.29 32.074 29.701 34.212 29.764zM339.812 514.406c45.499 0 42.772-29.766 42.772-29.766v-56.916c0-34.663-30.857-36.276-30.857-36.276s-21.65-2.723-54.668-2.717c-36.37 0.010-33.233 30.87-33.233 30.87v0 65.039c0 28.29 32.071 29.701 34.209 29.764zM213.308 490.726h-0.594c-5.081-0.057-32.774-1.751-36.516-31.713 0 0-4.484 10.245-11.388 12.169v0l-0.016-17.24c0 0-4.131-37.834 27.423-37.797 34.414 0.032 31.134 28.577 25.088 49.041 0 0-3.985-3.125-4.142-11.798-0.152-8.674-9.414 29.657 0.351 37.333v0l-0.092 0.003c-0.031 0.001-0.068 0.001-0.114 0.002zM342.655 490.726h-0.594c-5.081-0.057-32.777-1.751-36.516-31.713 0 0-4.482 10.245-11.387 12.169v0l-0.014-17.24c0 0-4.137-37.834 27.417-37.797 34.419 0.032 31.14 28.577 25.096 49.041 0 0-3.993-3.125-4.142-11.798-0.156-8.674-9.418 29.657 0.347 37.333v0l-0.092 0.003c-0.031 0.001-0.068 0.001-0.114 0.002zM844.612 476.47c0 0-13.16 9.378-13.16-8.931v0l0.002-38.848c0.041-1.587 0.702-10.93 10.672-6.685 0.419 0.179 0.838 0.358 1.257 0.538l2.513 1.085c17.158 7.449 33.725 15.463 35.229 16.192l0.111 0.054c0 0 14.244 6.547-0.48 15.327-21.692 12.928-36.144 21.269-36.144 21.269zM713.741 476.47c0 0-13.154 9.378-13.154-8.931v0-38.624c0 0-0.204-11.541 10.673-6.91 0.419 0.179 0.838 0.358 1.257 0.538l2.513 1.085c17.156 7.449 33.725 15.463 35.229 16.192l0.111 0.054c0 0 14.244 6.547-0.48 15.327-21.697 12.928-36.149 21.269-36.149 21.269zM600.3 531.193c-13.5-0.060-14.778-18.417-19.963-43.867-3.237-15.926-6.789-27.085 8.885-27.085v0h27.86v59.229c0 0 0.009 0.097 0.012 0.275l-0.002 0.323c-0.065 2.397-1.355 11.183-16.791 11.125z" />
<glyph unicode="&#xe902;" glyph-name="abr" d="M626.552 874.667l226.781-228.943-1.673-601.271c0.231-6.342-2.135-12.338-6.463-16.72-4.097-4.036-9.752-6.4-15.638-6.4v0h-635.852c-6.809 0-12.522 2.364-16.677 6.457-4.212 4.324-6.578 10.32-6.348 16.431v0 807.383c0 6.861 2.077 12.338 6.405 16.662 4.155 4.036 9.81 6.4 15.696 6.4v0h433.769zM216.904 828.544v-761.030h588.534v559.414l-200.756 199.943-387.778 1.672zM660.137 541.365c43.567 0 65.38-28.077 65.38-84.29 0-17.008-2.366-31.364-7.098-43.183-4.732-11.877-12.984-21.39-24.871-28.654v0l39.99-131.22h-39.297l-34.508 122.687h-22.159v-122.687h-37.104v287.346zM379.886 541.341l57.821-287.289h-37.104l-10.906 61.747h-50.55l-10.906-61.747h-37.047l57.821 287.289h30.872zM508.684 541.341c11.887 0 21.986-1.96 30.411-5.996 8.31-4.093 15.119-9.398 20.485-16.201 5.367-6.688 9.117-14.413 11.426-23.177 2.308-8.706 3.52-17.757 3.52-27.27v0-10.435c0-7.841-0.577-14.413-1.673-19.775-1.096-5.419-2.712-10.089-4.905-14.125-4.155-7.553-10.445-14.010-18.927-19.372 8.771-4.555 15.176-11.3 19.274-20.236 4.155-8.821 6.232-20.928 6.232-36.264v0-16.143c0-25.31-5.54-44.682-16.561-58.173-11.079-13.433-28.679-20.121-52.916-20.121v0h-50.492v287.289zM507.991 387.175h-16.388v-91.958h16.042c7.502 0 13.33 1.211 17.542 3.632 4.328 2.421 7.502 5.765 9.637 10.089 2.193 4.266 3.578 9.398 4.039 15.336 0.462 5.881 0.692 12.338 0.692 19.372 0 7.264-0.346 13.606-1.039 18.968-0.75 5.362-2.193 9.974-4.386 13.722-2.424 3.747-5.713 6.515-9.81 8.244-4.155 1.787-9.579 2.594-16.331 2.594v0zM364.594 458.666h-0.75l-18.119-104.123h37.104l-18.235 104.123zM656.848 502.621h-19.273v-89.594h21.062c6.578 0 11.714 1.038 15.638 3.056 3.866 2.018 6.925 4.901 9.117 8.648 1.904 3.805 3.289 8.417 3.924 13.952 0.75 5.477 1.154 11.934 1.154 19.199s-0.404 13.606-1.154 19.141c-0.635 5.477-2.135 10.262-4.328 14.356-4.616 7.553-13.272 11.242-26.14 11.242v0zM506.895 502.598h-15.292v-79.043h16.677c12.407 0 20.716 3.402 24.929 10.262 4.27 6.861 6.348 16.893 6.348 30.038 0 12.972-2.366 22.658-7.098 29.057-4.674 6.515-13.214 9.686-25.563 9.686v0z" />
<glyph unicode="&#xe903;" glyph-name="add-location" d="M512 874.667c90.919-2.54 166.371-35.241 226.356-98.103s91.2-141.908 93.644-237.135c0-127.782-86.104-280.167-258.317-457.151l141.953 0.008c19.392 0 29.091-10.161 29.091-30.476s-9.699-30.476-29.091-30.476h-407.273c-19.394 0-29.091 10.161-29.091 30.476s9.697 30.476 29.091 30.476l141.953-0.008c-172.211 176.984-258.317 329.369-258.317 457.151 2.424 95.248 33.639 174.293 93.644 237.135s135.457 95.543 226.356 98.103zM512 813.714c-73.949-1.91-135.612-28.739-184.989-80.488s-74.986-116.348-76.829-193.798c0-56.503 21.663-121.102 64.989-193.798 43.326-72.698 108.936-153.173 196.829-241.432 87.874 88.259 153.484 168.734 196.829 241.432 43.345 72.696 65.007 137.295 64.989 193.798-1.821 77.47-27.433 142.070-76.829 193.798s-111.059 78.557-184.989 80.488zM512 691.81c8.495 0 15.466-2.854 20.916-8.564s8.175-13.013 8.175-21.912v-91.429h87.273c8.495 0 15.465-2.854 20.916-8.564s8.175-13.013 8.175-21.912c0-8.899-2.723-16.203-8.175-21.912s-12.422-8.564-20.916-8.564h-87.273v-91.429c0-8.899-2.725-16.203-8.175-21.912s-12.422-8.564-20.916-8.564c-8.495 0-15.466 2.854-20.916 8.564s-8.175 13.013-8.175 21.912v91.429h-87.273c-8.495 0-15.466 2.854-20.916 8.564s-8.175 13.013-8.175 21.912c0 8.899 2.725 16.203 8.175 21.912s12.422 8.564 20.916 8.564h87.273v91.429c0 8.899 2.725 16.203 8.175 21.912s12.422 8.564 20.916 8.564z" />
<glyph unicode="&#xe904;" glyph-name="ai" d="M626.564 874.667l226.787-228.946-1.673-601.279c0.231-6.342-2.135-12.338-6.463-16.72-4.097-4.036-9.752-6.4-15.638-6.4v0h-635.869c-6.809 0-12.522 2.364-16.677 6.457-4.213 4.324-6.579 10.32-6.348 16.432v0 807.394c0 6.861 2.077 12.338 6.405 16.662 4.155 4.036 9.81 6.4 15.696 6.4v0h433.78zM216.905 828.543v-761.040h588.549v559.422l-200.761 199.946-387.788 1.672zM611.774 541.32v-287.293h-37.105v287.293h37.105zM499.477 541.395l57.822-287.35h-37.105l-10.907 61.748h-50.551l-10.907-61.748h-37.048l57.822 287.35h30.873zM484.185 458.66h-0.75l-18.12-104.124h37.105l-18.235 104.124z" />
<glyph unicode="&#xe905;" glyph-name="aim" d="M512 874.667c120.645-3.17 221.123-44.912 301.44-125.227s122.057-180.795 125.227-301.44c-3.17-120.645-44.91-221.123-125.227-301.44s-180.795-122.057-301.44-125.227c-120.645 3.17-221.125 44.91-301.44 125.227s-122.057 180.795-125.227 301.44c3.17 120.645 44.912 221.125 125.227 301.44s180.795 122.057 301.44 125.227zM542.512 811.953l-0.035-181.096c0-8.899-2.854-16.203-8.564-21.912s-13.013-8.564-21.912-8.564c-8.899 0-16.203 2.854-21.912 8.564s-8.564 13.013-8.564 21.912l-0.002 181.105c-90.054-8.249-166.081-43.383-228.082-105.402-61.992-62.010-97.122-138.026-105.393-228.048l181.096-0.035c8.899 0 16.203-2.854 21.912-8.564s8.564-13.013 8.564-21.912c0-8.899-2.854-16.203-8.564-21.912s-13.013-8.564-21.912-8.564l-181.105-0.002c8.249-90.054 43.383-166.081 105.402-228.082 62.010-61.992 138.026-97.122 228.048-105.393l0.035 181.096c0 8.899 2.854 16.201 8.564 21.912s13.013 8.564 21.912 8.564c8.899 0 16.203-2.853 21.912-8.564s8.564-13.013 8.564-21.912l0.002-181.104c90.054 8.251 166.081 43.384 228.082 105.401 61.992 62.008 97.122 138.025 105.393 228.048l-181.096 0.035c-8.899 0-16.201 2.854-21.912 8.564s-8.564 13.013-8.564 21.912c0 8.899 2.853 16.203 8.564 21.912s13.013 8.564 21.912 8.564l181.104 0.002c-8.251 90.054-43.384 166.081-105.401 228.082-62.008 61.992-138.025 97.122-228.048 105.393z" />
<glyph unicode="&#xe906;" glyph-name="alarm-clock" d="M515.825 813.062c104.351-2.553 191.25-38.457 260.695-107.713s105.457-155.892 108.038-259.907c-2.563-104.036-38.575-190.67-108.038-259.905-15.369-15.317-31.591-29.003-48.666-41.057l45.316-78.174c5.138-10.214 4.824-20.262-0.953-30.145-5.777-9.889-14.424-14.827-25.934-14.827-11.517 0-20.477 4.785-26.887 14.368v0l-45.052 77.638c-47.4-22.239-100.239-34.077-158.519-35.514-58.291 1.424-111.137 13.256-158.535 35.496l-45.035-77.619c-6.412-9.583-15.374-14.368-26.887-14.368s-20.157 4.938-25.934 14.827c-5.777 9.883-6.095 19.931-0.953 30.145l45.304 78.161c-17.072 12.057-33.29 25.747-48.653 41.070-69.444 69.253-105.457 155.889-108.038 259.905 2.561 104.036 38.574 190.672 108.038 259.907s156.362 105.139 260.693 107.713zM515.825 751.792c-87.062-1.92-159.558-31.759-217.49-89.515s-87.861-130.036-89.786-216.834c1.925-86.799 31.854-159.079 89.786-216.833 57.932-57.759 130.428-87.598 217.49-89.515 87.062 1.918 159.558 31.756 217.491 89.515 57.928 57.753 87.856 130.033 89.786 216.833-1.93 86.799-31.858 159.077-89.786 216.834-57.934 57.757-130.43 87.595-217.491 89.515zM515.825 445.442h153.639c8.972 0 16.335-2.87 22.093-8.608 5.752-5.739 8.634-13.081 8.634-22.027s-2.882-16.288-8.634-22.027c-5.758-5.739-13.121-8.608-22.093-8.608h-184.367c-8.972 0-16.337 2.869-22.093 8.608s-8.634 13.081-8.634 22.027v214.445c0 8.945 2.878 16.287 8.634 22.027s13.121 8.608 22.093 8.608c8.972 0 16.337-2.87 22.093-8.608s8.634-13.081 8.634-22.027v-183.81zM110.62 636.911c-19.85 31.268-28.013 64.456-24.49 99.564s18.57 65.906 45.139 92.395c26.569 26.489 57.461 41.49 92.675 45.003s68.502-4.626 99.865-24.416l-45.139-45.003c-17.925 8.292-36.331 10.845-55.218 7.659s-35.214-11.805-48.98-25.856c-13.766-14.052-22.411-30.482-25.934-49.292s-1.126-37.16 7.19-55.051l-44.186-45.003h-0.922zM913.381 636.911c19.85 31.268 28.011 64.456 24.49 99.564-3.528 35.108-18.406 65.906-44.647 92.395s-57.135 41.49-92.675 45.003c-35.546 3.513-68.996-4.626-100.356-24.416l45.139-45.003c17.92 8.292 36.326 10.845 55.218 7.659 18.885-3.186 35.368-11.805 49.441-25.856s22.714-30.482 25.934-49.292c3.214-18.81 0.651-37.16-7.682-55.051l45.139-45.003z" />
<glyph unicode="&#xe907;" glyph-name="apple" d="M599.147 740.79c21.105 5.114 42.214 6.71 63.317 4.787h2.976c15.177-0.634 28.695-2.076 40.554-4.327s24.396-6.25 37.61-11.999c37.591-14.71 74.524-43.157 110.804-85.341 47.487-60.106 68.097-139.382 61.829-237.827s-38.42-186.039-96.463-262.776l-30.677-38.359c-9.244-11.52-19.141-22.709-29.695-33.572-15.177-15.976-31.5-27.968-48.975-35.966s-37.433-11.999-59.866-11.999c-15.176-0.632-29.19 0.479-42.043 3.345s-26.54 7.5-41.061 13.901l-6.933 2.885c-9.899 4.48-18.14 7.518-24.725 9.114s-14.004 2.394-22.256 2.394c-8.253 0-15.998-0.798-23.237-2.394s-16.146-4.953-26.72-10.065l-5.952-1.933c-13.845-5.751-26.54-10.231-38.085-13.441s-24.24-5.137-38.085-5.769c-35.626-1.289-66.631 8.304-93.012 28.785s-54.748 53.408-85.097 98.783c-48.817 70.335-79.484 148.496-91.999 234.482s0.021 163.185 37.61 231.597c23.089 39.648 53.756 70.816 91.999 93.504s80.127 34.677 125.652 35.966c15.829 0.634 31.489-0.962 46.981-4.787s32.808-9.585 51.951-17.277l27.701-10.556 8.896-2.885c16.483 19.19 28.028 35.178 34.634 47.964 13.191 25.573 26.709 57.856 40.554 96.849 2.638 8.306 7.746 14.219 15.323 17.737s15.66 4 24.25 1.442c8.59-2.557 14.689-7.508 18.298-14.853s4.104-15.18 1.488-23.507c-11.883-36.436-24.419-67.768-37.61-93.995l0.063 0.092zM547.702 665.974c-13.845-17.267-30.993-36.129-51.445-56.587-5.931-5.749-13.191-8.787-21.781-9.114s-16.009 2.394-22.256 8.163c-6.247 5.769-9.551 12.807-9.909 21.113s2.448 15.661 8.421 22.064l11.872 12.459c-13.845 5.749-28.851 11.344-45.018 16.786s-32.82 8.163-49.957 8.163c-34.951-0.634-67.274-9.902-96.969-27.803s-53.767-42.195-72.213-72.882c-34.297-65.221-43.699-136.344-28.208-213.369s42.042-142.070 79.652-195.141c17.159-26.207 36.291-49.701 57.396-70.489s45.176-31.497 72.213-32.13c24.398 2.559 45.503 8.47 63.317 17.737s41.557 14.546 71.231 15.835c29.674-1.289 53.249-6.721 70.725-16.295s39.076-15.006 64.805-16.295c26.384 0.632 47.981 9.587 64.805 26.851s37.104 41.563 60.847 72.882c52.762 70.335 80.963 148.169 84.591 233.5s-12.695 151.023-48.975 197.074c-36.28 39.648-67.116 63.461-92.505 71.44s-44.683 11.334-57.871 10.065c-20.451 1.923-40.238 0-59.36-5.769s-36.935-11.845-53.439-18.228l0.032-0.031z" />
<glyph unicode="&#xe908;" glyph-name="arrow-down" d="M879.97 692.184l-368.007-408.544-368.006 408.544c-6.894 7.849-14.941 11.774-24.141 11.774s-17.247-3.925-24.141-11.774c-6.894-7.85-10.341-17.012-10.341-27.488s3.067-19.205 9.2-26.189l392.147-434.733c6.894-7.844 15.333-11.774 25.319-11.774s18.424 3.93 25.318 11.774l392.148 433.434c6.131 7.849 9.2 17.235 9.2 28.158s-3.445 20.084-10.341 27.488c-6.896 7.402-14.941 11.117-24.141 11.146-9.2 0.028-17.245-3.897-24.141-11.775l-0.074-0.042z" />
<glyph unicode="&#xe909;" glyph-name="arrow-left" d="M669.704 865.503l-361.224-392.181c-6.541-6.895-9.813-15.139-9.813-24.732s3.271-18.218 9.813-25.873l361.224-392.182c6.542-6.132 14.178-9.201 22.908-9.201s16.364 3.445 22.908 10.342c6.544 6.897 9.813 14.942 9.813 24.143s-3.269 17.246-9.813 24.143l-340.481 368.038 340.481 368.038c6.544 6.895 9.813 14.942 9.813 24.143s-3.269 17.248-9.813 24.143c-6.544 6.895-14.178 10.342-22.908 10.342s-16.366-3.067-22.908-9.201v0.037z" />
<glyph unicode="&#xe90a;" glyph-name="arrow-right" d="M308.48 865.43c-6.541-7.68-9.813-16.119-9.813-25.319s3.271-17.248 9.813-24.141l340.481-368.006-340.481-368.007c-6.541-6.896-9.813-14.941-9.813-24.141s3.271-17.245 9.813-24.141c6.542-6.896 14.178-10.341 22.908-10.341s16.367 3.069 22.908 9.2l361.224 392.148c6.544 6.893 9.813 15.333 9.813 25.319s-3.269 18.425-9.813 25.319l-361.224 392.147c-6.541 6.133-14.178 9.2-22.908 9.2s-16.366-3.067-22.908-9.2v-0.037z" />
<glyph unicode="&#xe90b;" glyph-name="arrow-up" d="M485.611 693.038l-389.964-435.19c-6.876-8.137-10.313-17.086-10.313-26.839s3.438-18.701 10.313-26.839v-1.209c6.876-7.31 15.097-10.962 24.664-10.962s17.788 3.651 24.664 10.962l367.025 409.6 367.025-409.6c6.878-7.31 15.099-10.962 24.664-10.962s17.786 3.651 24.664 10.962v1.209c6.878 8.137 10.313 17.086 10.313 26.839s-3.435 18.701-10.313 26.839l-389.964 435.19c-6.876 7.308-15.672 10.962-26.389 10.962s-19.513-3.654-26.389-10.962z" />
<glyph unicode="&#xe90c;" glyph-name="attract" d="M867.556 661.333v142.222h-142.222v-355.556c-1.493-60.752-22.236-111.123-62.222-151.111-39.988-39.986-90.359-60.729-151.111-62.222-60.752 1.493-111.123 22.236-151.111 62.222-39.988 39.988-60.729 90.359-62.222 151.111v355.556h-142.222v-142.222h142.222v-71.111h-142.222v-142.222c2.228-100.741 36.859-184.626 103.893-251.662s150.921-101.668 251.662-103.893c100.741 2.226 184.626 36.857 251.662 103.893s101.668 150.921 103.893 251.662v142.222h-142.222v71.111h142.222zM654.222 448v426.667h284.444v-426.667c-2.965-120.747-44.636-221.298-125.013-301.653s-180.93-122.027-301.653-125.013c-120.747 2.965-221.298 44.636-301.653 125.013s-122.027 180.93-125.013 301.653v426.667h284.444v-426.667c0.735-40.012 14.625-73.529 41.671-100.551s60.563-40.912 100.551-41.671c40.012 0.735 73.529 14.625 100.551 41.671s40.912 60.563 41.671 100.551z" />
<glyph unicode="&#xe90d;" glyph-name="back" d="M456.348 810.667c10.042 0 18.736-3.59 26.082-10.771s11.019-15.68 11.019-25.495c0-9.816-3.475-18.508-10.426-26.076l-271.184-264.058h689.725c10.834 0 19.723-3.397 26.676-10.191s10.426-15.486 10.426-26.076c0-10.59-3.473-19.282-10.426-26.076s-15.842-10.191-26.676-10.191h-689.725l271.184-264.058c6.951-7.565 10.426-16.262 10.426-26.076s-3.673-18.315-11.019-25.495c-7.346-7.181-16.040-10.771-26.082-10.771s-18.934 3.395-26.676 10.191l-333.913 326.4c-6.951 7.567-10.426 16.26-10.426 26.076s3.475 18.508 10.426 26.076l333.913 326.4c7.742 6.794 16.634 10.191 26.676 10.191z" />
<glyph unicode="&#xe90e;" glyph-name="badge" d="M170.667 874.667v-853.333l341.333 178.464 341.333-178.464v853.333z" />
<glyph unicode="&#xe90f;" glyph-name="bank-card" d="M782.457 789.333c26.677 0 46.68-1.458 60.003-4.375 13.329-2.917 24.44-6.961 33.339-12.132 20.32-10.984 35.868-26.497 46.656-46.541 5.083-9.701 9.051-21.336 11.915-34.906s4.297-33.933 4.297-61.093v-364.573c0-27.155-1.432-47.522-4.297-61.093-2.865-13.565-6.832-24.884-11.915-33.944-10.788-20.683-26.025-36.519-45.711-47.503-9.526-5.169-20.954-9.215-34.283-12.132-13.323-2.917-33.326-4.375-60.003-4.375h-540.913c-26.675 0-46.676 1.458-60.003 4.375s-24.755 6.963-34.283 12.132c-19.686 10.984-34.923 26.497-45.711 46.541-5.079 9.705-9.051 21.341-11.915 34.906-2.865 13.571-4.297 33.938-4.297 61.093v364.573c0 27.16 1.432 47.523 4.297 61.093s6.837 25.205 11.915 34.906c10.788 20.044 26.025 35.557 45.711 46.541 9.529 5.171 20.956 9.215 34.283 12.132s33.329 4.375 60.003 4.375h540.913zM877.696 448.043h-731.435l0.020-182.329c0-20.044 0.64-34.583 1.92-43.625 1.28-9.035 3.82-16.476 7.619-22.309 4.449-9.699 11.438-16.817 20.966-21.347 5.709-3.885 13.012-6.472 21.911-7.757 8.898-1.278 23.181-1.93 42.847-1.955h540.913c19.686 0 33.972 0.652 42.847 1.955 8.88 1.303 16.182 3.891 21.911 7.757 9.532 4.53 16.517 11.648 20.966 21.347 3.821 5.815 6.363 13.249 7.619 22.309 1.262 9.060 1.902 23.606 1.92 43.625l-0.023 182.329zM451.083 323.891v-62.056h-243.793v62.056h243.793zM877.696 572.117h-731.435v-62.037h731.435v62.037zM782.457 727.278h-540.913c-19.686 0-33.968-0.652-42.847-1.955s-16.182-3.889-21.911-7.757c-9.528-4.53-16.517-11.646-20.966-21.347-3.819-5.813-6.359-13.249-7.619-22.309-1.174-8.45-1.81-21.667-1.907-39.653l731.402-0.061-0.017 4.343c-0.157 15.833-0.784 27.623-1.881 35.371-1.28 9.040-3.815 16.476-7.619 22.309-4.449 9.701-11.434 16.817-20.966 21.347-5.705 3.889-13.012 6.474-21.911 7.757s-23.179 1.934-42.847 1.955z" />
<glyph unicode="&#xe910;" glyph-name="bell" d="M572.952 81.408c-0.63-17.165-6.664-31.468-18.103-42.897s-25.722-17.159-42.85-17.177c-17.128-0.018-31.411 5.705-42.85 17.177s-17.473 25.769-18.103 42.897h121.905zM512 874.667c17.148-0.63 31.431-6.671 42.85-18.123s17.452-25.75 18.103-42.897l0.012-6.431c59.807-11.741 111.388-39.314 154.747-82.719 57.46-57.522 87.144-129.504 89.051-215.95l-0.037-305.070 91.465-0.030c20.315 0 30.476-10.172 30.476-30.51s-10.161-30.51-30.476-30.51h-792.381c-20.317 0-30.476 10.172-30.476 30.51s10.159 30.51 30.476 30.51l91.422 0.030 0.006 305.070c1.91 86.445 31.593 158.428 89.051 215.95 43.357 43.405 94.939 70.978 154.746 82.719l0.012 6.431c0.63 17.167 6.664 31.466 18.103 42.897s25.722 17.472 42.85 18.123zM512 752.627c-69.201-1.912-126.659-25.75-172.373-71.515s-69.527-103.287-71.436-172.564v-305.1h487.619v305.1c-1.908 69.278-25.722 126.799-71.436 172.564s-103.172 69.604-172.373 71.515z" />
<glyph unicode="&#xe911;" glyph-name="bicycle" d="M633.905 810.667c6.991 0 13.178-2.045 18.56-6.135s9.033-9.6 10.941-16.532l85.775-340.252c2.193 0.114 4.403 0.198 6.629 0.252 52.072-1.269 95.25-18.899 129.524-52.889s52.053-76.807 53.333-128.444c-1.28-51.638-19.060-94.457-53.333-128.444s-77.452-51.62-129.524-52.889c-52.072 1.269-95.25 18.901-129.524 52.889-27.344 27.114-44.188 59.849-50.533 98.198h-127.506c-6.345-38.349-23.189-71.083-50.533-98.198-34.275-33.988-77.45-51.62-129.524-52.889-52.073 1.269-95.248 18.901-129.524 52.889s-52.053 76.807-53.333 128.444c1.28 51.638 19.058 94.455 53.333 128.444 31.759 31.494 71.159 48.943 118.199 52.345l-41.033 121.433h-99.992c-8.93 0-16.233 2.831-21.943 8.492s-8.564 12.905-8.564 21.73c0 8.825 2.854 16.068 8.564 21.73s13.013 8.492 21.912 8.492h121.905c6.989 0 13.024-1.894 18.103-5.682s8.574-8.825 10.484-15.111l56.783-168.89c11.886-3.55 23.162-8.221 33.828-14.014l273.446 244.102-20.285 80.484h-128.579c-8.869 0-16.172 2.831-21.882 8.492s-8.564 12.905-8.564 21.73c0 8.825 2.854 16.068 8.564 21.73s13.013 8.492 21.912 8.492h152.381zM268.19 387.556c-34.296-0.624-63.025-12.432-86.187-35.42s-35.068-51.481-35.718-85.468c0.63-34.012 12.536-62.5 35.718-85.468s51.911-34.774 86.187-35.42c34.296 0.623 63.025 12.433 86.187 35.42 15.922 15.802 26.526 34.207 31.81 55.209l-87.52 0.037c-20.317 0-30.476 10.076-30.476 30.222s10.159 30.222 30.476 30.222l87.538 0.032c-5.277 21.015-15.886 39.419-31.827 55.214-23.182 22.969-51.911 34.776-86.187 35.42zM755.81 387.556c-34.298-0.624-63.025-12.432-86.187-35.42s-35.066-51.481-35.718-85.468c0.628-34.012 12.538-62.5 35.718-85.468s51.913-34.774 86.187-35.42c34.298 0.623 63.025 12.433 86.187 35.42s35.066 51.481 35.718 85.468c-0.628 34.012-12.538 62.5-35.718 85.468s-51.913 34.776-86.187 35.42zM647.040 603.605l-242.082-216.081c23.095-25.568 37.525-55.773 43.288-90.612h127.506c6.345 38.348 23.189 71.082 50.533 98.198 18.439 18.286 39.455 31.837 63.046 40.653l-42.292 167.841z" />
<glyph unicode="&#xe912;" glyph-name="bold" d="M570.047 201.143h-180.589v164.571h180.589c42.825 0 77.395-36.754 77.395-82.286s-34.57-82.286-77.395-82.286v0zM389.457 694.857h154.791c42.825 0 77.395-36.754 77.395-82.286s-34.57-82.286-77.395-82.286h-154.791v164.571zM678.4 459.52c50.049 36.754 85.135 97.097 85.135 153.051 0 123.977-90.295 219.429-206.388 219.429h-322.481v-768h363.242c107.838 0 191.424 93.257 191.424 207.909 0 83.383-44.373 154.697-110.933 187.611v0z" />
<glyph unicode="&#xe913;" glyph-name="bookmark" d="M583.111 874.667v-320l106.667 106.667 106.667-106.667v320h142.222v-853.333h-640v853.333h284.444zM85.333 874.667h142.222v-853.333h-142.222v853.333z" />
<glyph unicode="&#xe914;" glyph-name="bottom-left" d="M893.754 874.667c12.153 0 22.681-4.446 31.573-13.339s13.339-19.417 13.339-31.573c0-12.156-4.204-22.921-12.62-32.292l-686.302-686.273 519.274-0.031c13.114 0 23.875-4.204 32.292-12.62s12.62-19.178 12.62-32.292c0-13.114-4.204-23.875-12.62-32.292s-19.178-12.62-32.292-12.62l-628.079 0.005c-0.231-0.003-0.462-0.005-0.693-0.005l-3.867 0.256-2.494 0.094c-10.276 1.168-18.919 5.256-25.931 12.27-8.414 8.417-12.62 19.178-12.62 32.292v628.772c0 13.114 4.206 23.878 12.62 32.292s19.178 12.62 32.292 12.62c13.114 0 23.878-4.206 32.292-12.62s12.62-19.178 12.62-32.292l-0.011-519.231 686.316 686.26c9.369 8.414 20.139 12.62 32.292 12.62z" />
<glyph unicode="&#xe915;" glyph-name="bottom-right" d="M130.246 874.667c12.156 0 22.921-4.206 32.292-12.62v0l686.273-686.26 0.031 519.231c0 10.929 2.919 20.225 8.763 27.889l3.857 4.403c8.417 8.414 19.178 12.62 32.292 12.62s23.875-4.206 32.292-12.62c8.417-8.414 12.62-19.178 12.62-32.292v0l-0.043-628.074 0.043-0.698c0-1.312-0.052-2.604-0.155-3.878-0.734-11.38-4.896-20.845-12.465-28.414-8.417-8.417-19.178-12.62-32.292-12.62v0c-0.231 0-0.462 0.002-0.693 0.005l-628.079-0.005c-13.114 0-23.878 4.204-32.292 12.62s-12.62 19.178-12.62 32.292c0 13.114 4.206 23.875 12.62 32.292s19.178 12.62 32.292 12.62v0l519.231 0.031-686.26 686.273c-7.012 7.809-11.101 16.586-12.27 26.33l-0.351 5.962c0 12.156 4.446 22.681 13.339 31.573s19.417 13.339 31.573 13.339z" />
<glyph unicode="&#xe916;" glyph-name="bottom" d="M548.267 147.268v692.658c0 10.144-3.397 18.47-10.191 24.978s-15.486 9.762-26.076 9.762c-10.59 0-19.282-3.254-26.076-9.762s-10.191-14.834-10.191-24.978v-692.658l-264.058 269.24c-7.567 7.249-16.26 10.874-26.076 10.874s-18.315-3.799-25.495-11.395c-7.181-7.596-10.771-16.097-10.771-25.5s3.397-18.088 10.191-26.055l326.4-332.224c7.567-7.247 16.26-10.874 26.076-10.874s18.508 3.627 26.076 10.874l326.4 332.224c6.796 7.967 10.191 16.653 10.191 26.055s-3.59 17.903-10.771 25.5c-7.181 7.596-15.682 11.395-25.495 11.395s-18.511-3.625-26.076-10.874l-264.058-269.24z" />
<glyph unicode="&#xe917;" glyph-name="box" d="M711.048 874.667c9.527 0 17.462-3.494 23.801-10.483l196.199-224.754c2.355-2.648 4.164-5.502 5.428-8.56l2.161-0.003 0.026-10.859c0.003-0.189 0.005-0.379 0.005-0.57v-567.599c0-8.899-2.852-16.201-8.564-21.912s-13.013-8.564-21.912-8.564h-792.353c-8.899 0-16.202 2.852-21.912 8.564s-8.564 13.013-8.564 21.912l-0.030 579.027 2.221 0.003c1.263 3.059 3.073 5.912 5.428 8.56l196.199 224.754c6.359 6.989 14.293 10.483 23.801 10.483h398.066zM877.653 569.941h-243.797l0.029-274.302c0-8.899-2.854-16.201-8.564-21.912s-13.013-8.564-21.912-8.564h-182.851c-8.899 0-16.202 2.852-21.912 8.564s-8.564 13.013-8.564 21.912l-0.026 274.302h-243.797l0.022-487.627h731.402l-0.033 487.627zM572.928 569.941h-121.899l0.005-243.827h121.9l-0.007 243.827zM435.797 813.739l-109.528-0.022-160.040-182.847 223.855-0.003 45.713 182.873zM525.302 813.716h-26.666l-45.73-182.847h118.101l-45.706 182.847zM697.7 813.716l-109.54 0.022 45.725-182.873 223.8 0.003-159.985 182.847z" />
<glyph unicode="&#xe918;" glyph-name="brush" d="M877.714 523.062h-731.429v-180.148c0.63-16.892 6.664-30.967 18.103-42.215s25.722-17.192 42.85-17.835h182.857v-180.148h243.81v180.148h182.857c17.146 0.619 31.433 6.563 42.85 17.835s17.451 25.341 18.103 42.215v180.148zM143.421 583.111c0 44.417 5.079 84.449 15.238 120.099 13.978 50.662 40.33 100.703 79.055 150.123h397.135l-14.293-65.694 104.777 65.694h200.96c-23.485-40.033-39.68-90.074-48.579-150.123-5.711-40.033-7.619-80.066-5.73-120.099h66.682v-240.198c-0.628-33.79-12.538-62.091-35.718-84.91s-51.913-34.546-86.187-35.189h-121.905v-150.123c0-8.767-2.853-15.961-8.564-21.588s-13.013-8.437-21.912-8.437h-304.762c-8.899 0-16.203 2.81-21.912 8.437s-8.564 12.821-8.564 21.588v150.123h-121.905c-34.296 0.619-63.025 12.352-86.187 35.189s-35.068 51.144-35.718 84.91v240.198h58.088zM204.373 583.111h606.659c-1.908 43.156 0.317 86.001 6.674 128.536 3.822 28.783 9.539 55.996 17.158 81.637h-91.429l-210.469-132.289 26.667 132.289h-290.469c-24.767-35.65-41.915-70.989-51.444-106.017-8.899-30.025-13.349-64.743-13.349-104.156v0z" />
<glyph unicode="&#xe919;" glyph-name="bullet-list" d="M292.901 675.556h645.766v91.022h-645.766v-91.022zM292.901 402.489h645.766v91.022h-645.766v-91.022zM292.901 129.422h645.766v91.022h-645.766v-91.022zM154.523 243.2c-38.285 0-69.189-30.948-69.189-68.267s31.366-68.267 69.189-68.267c37.823 0 69.189 30.948 69.189 68.267s-30.905 68.267-69.189 68.267v0zM154.523 789.333c-38.285 0-69.189-30.492-69.189-68.267s30.905-68.267 69.189-68.267c38.285 0 69.189 30.492 69.189 68.267s-30.905 68.267-69.189 68.267v0zM154.523 516.267c-38.285 0-69.189-30.492-69.189-68.267s30.905-68.267 69.189-68.267c38.285 0 69.189 30.492 69.189 68.267s-30.905 68.267-69.189 68.267v0z" />
<glyph unicode="&#xe91a;" glyph-name="c-scale-to-original" d="M816.313 749.487c17.534 0 32.028-5.681 43.48-17.044s17.179-25.743 17.179-43.141v-483.502c0-16.711-5.894-30.924-17.696-42.627-11.795-11.703-26.114-17.558-42.963-17.558h-608.627c-16.845 0-31.165 5.855-42.963 17.558s-17.696 25.916-17.696 42.627v483.502c0 17.397 5.726 31.778 17.179 43.141s25.946 17.044 43.48 17.044h608.627zM816.313 810.667h-608.627c-16.176-0.663-31.683-4.012-46.521-10.047s-27.984-14.733-39.436-26.096c-11.452-11.363-20.381-24.406-26.787-39.128s-9.608-30.109-9.608-46.158v-483.502c0-16.049 3.203-31.437 9.608-46.158s15.335-27.765 26.787-39.128c11.452-11.363 24.597-20.062 39.436-26.096s30.346-9.039 46.521-9.020h608.627c16.176 0 31.685 3.005 46.521 9.020 14.843 6.015 27.984 14.714 39.436 26.096s20.381 24.427 26.787 39.128c6.406 14.701 9.608 30.089 9.608 46.158v483.502c0 16.049-3.203 31.435-9.608 46.158s-15.335 27.765-26.787 39.128c-11.452 11.363-24.594 20.062-39.436 26.096-14.836 6.035-30.346 9.384-46.521 10.047v0zM694.995 629.117c-8.754 0-16.001-3.006-21.74-9.020-5.733-6.013-8.605-13.032-8.605-21.057v-301.92c0-8.686 2.873-15.876 8.605-21.57 5.739-5.694 12.986-8.538 21.74-8.538 8.761 0 16.008 2.844 21.74 8.538 5.739 5.694 8.605 12.884 8.605 21.57v301.92c0 8.688-2.866 15.878-8.605 21.57-5.733 5.692-12.979 8.538-21.74 8.538v-0.032zM329.037 629.117c-8.088 0-15.162-3.006-21.223-9.020s-9.091-13.032-9.091-21.057v-301.92c0-8.686 2.868-15.876 8.605-21.57s12.983-8.538 21.74-8.538c8.756 0 16.003 2.844 21.74 8.538s8.605 12.884 8.605 21.57v301.92c0 8.025-2.869 15.043-8.605 21.057s-12.984 9.020-21.74 9.020h-0.032zM512.017 568.932c-8.757-0.663-16.004-3.841-21.74-9.533s-8.605-12.882-8.605-21.57v-30.109c0-8.025 2.868-14.883 8.605-20.575s12.983-8.538 21.74-8.538c8.756 0 16.003 2.846 21.74 8.538s8.605 12.551 8.605 20.575v30.109c0 8.688-3.031 15.878-9.091 21.57s-13.135 8.87-21.223 9.533h-0.032zM512.017 417.458c-8.757 0-16.004-2.846-21.74-8.538s-8.605-12.882-8.605-21.57v-30.109c0-8.688 2.868-15.878 8.605-21.57s12.983-8.538 21.74-8.538c8.756 0 16.003 2.846 21.74 8.538s8.605 12.882 8.605 21.57v30.109c0 8.025-3.031 15.043-9.091 21.057s-13.135 9.020-21.223 9.020l-0.032 0.032z" />
<glyph unicode="&#xe91b;" glyph-name="camera-solid" d="M150.974 704c-18.467-0.661-33.849-6.997-46.146-19.008s-18.795-27.008-19.495-44.992v-512c0.678-18.003 7.177-33.005 19.495-44.992s27.701-18.323 46.146-19.008h722.051c18.465 0.659 33.851 6.995 46.146 19.008s18.793 27.008 19.495 44.992v512c-0.676 18.005-7.175 33.003-19.495 44.992s-27.701 18.325-46.146 19.008h-118.974l-47.196 92.992c-5.468 10.667-13.502 19.168-24.090 25.504s-22.042 9.504-34.363 9.504h-272.837c-12.319 0-23.598-3.168-33.838-9.504s-18.445-14.837-24.615-25.504l-47.196-92.992h-118.942zM512 268.992c21.202 0 40.862 5.005 58.978 15.008 18.117 10.005 32.481 24.171 43.093 42.496s15.907 37.493 15.885 57.504c-0.022 20.011-5.317 39.179-15.885 57.504s-24.932 32.491-43.093 42.496c-18.161 10.005-37.82 15.008-58.978 15.008-33.499-0.661-61.363-11.829-83.594-33.504s-33.685-48.843-34.363-81.504c0.678-32.661 12.132-59.829 34.363-81.504 22.231-21.677 50.095-32.845 83.594-33.504zM512 192c-55.893 1.502-102.302 20.256-139.225 56.256s-56.156 81.248-57.698 135.744c1.542 54.496 20.775 99.744 57.698 135.744s83.331 54.752 139.225 56.256c55.893-1.504 102.302-20.256 139.225-56.256s56.158-81.248 57.698-135.744c-1.541-54.496-20.775-99.744-57.698-135.744s-83.331-54.754-139.225-56.256z" />
<glyph unicode="&#xe91c;" glyph-name="camera" d="M877.684 666.256h-731.429v-561.231h731.429v561.231zM688.153 728.615l-30.476 62.359h-290.469l-30.476-62.359h351.422zM115.779 728.615h152.381l43.825 90.608c5.709 10.393 13.328 18.677 22.857 24.85s20.328 9.26 32.396 9.26h290.469c11.441 0 21.912-3.087 31.421-9.26s17.128-14.457 22.857-24.85l43.825-90.608h152.381c8.899 0 16.201-2.92 21.912-8.761s8.564-13.314 8.564-22.418v-623.59c0-9.104-2.853-16.575-8.564-22.418s-13.013-8.761-21.912-8.761h-792.382c-8.899 0-16.203 2.918-21.912 8.761s-8.564 13.314-8.564 22.418v623.59c0 9.104 2.854 16.577 8.564 22.418s13.013 8.761 21.912 8.761h-0.030zM511.97 229.744c43.174 1.31 79.045 16.575 107.611 45.803 28.569 29.226 43.49 65.924 44.77 110.095-1.28 44.171-16.201 80.869-44.77 110.095-28.567 29.226-64.437 44.493-107.611 45.803-43.174-1.31-79.045-16.577-107.611-45.803s-43.49-65.924-44.77-110.095c1.28-44.171 16.203-80.869 44.77-110.095 28.567-29.228 64.437-44.493 107.611-45.803v0zM511.97 167.385c-60.323 1.31-110.639 22.586-150.949 63.824s-61.105 92.717-62.385 154.432c1.28 61.715 22.075 113.192 62.385 154.432s90.626 62.515 150.949 63.824c60.323-1.31 110.638-22.585 150.949-63.824 40.308-41.24 61.105-92.717 62.385-154.432-1.28-61.715-22.077-113.194-62.385-154.432-40.311-41.238-90.626-62.515-150.949-63.824z" />
<glyph unicode="&#xe91d;" glyph-name="caret-bottom" d="M85.333 704l426.667-512 426.667 512z" />
<glyph unicode="&#xe91e;" glyph-name="caret-left" d="M768 874.667l-512-426.667 512-426.667z" />
<glyph unicode="&#xe91f;" glyph-name="caret-right" d="M256 874.667v-853.333l512 426.667z" />
<glyph unicode="&#xe920;" glyph-name="caret-top" d="M512 704l-426.667-512h853.333z" />
<glyph unicode="&#xe921;" glyph-name="caution" d="M574.596 756.757l354.393-552.579c12.909-20.122 12.902-44.909-0.013-65.024-12.909-20.115-36.768-32.506-62.586-32.487h-708.784c-25.812-0.019-49.672 12.371-62.585 32.487s-12.918 44.903-0.012 65.024l354.393 552.579c12.89 20.155 36.759 32.577 62.597 32.577s49.707-12.422 62.596-32.577zM469.333 277.33h85.333v-85.331h-85.333v85.331zM554.666 618.667h-85.333v-298.667h85.333v298.667z" />
<glyph unicode="&#xe922;" glyph-name="chat-dot-round" d="M191.086 123.152l128.579 43.225 22.857-10.576c52.074-26.906 108.587-40.366 169.539-40.366 103.497 3.197 189.683 37.304 258.56 102.313 68.876 65.016 104.594 143.633 107.154 235.863-2.542 92.229-38.26 170.85-107.154 235.861s-155.082 99.116-258.56 102.313c-103.497-3.197-189.684-37.302-258.56-102.313s-104.594-143.632-107.154-235.861c0-33.305 5.72-66.293 17.158-98.962s28.262-63.412 50.469-92.231l20.968-27.853-43.855-111.413zM147.261 44.357c-12.069-3.849-22.39-1.125-30.964 8.178-8.574 9.309-10.636 20.038-6.187 32.188l55.253 140.281c-25.396 33.94-45.084 70.291-59.063 109.047s-20.968 78.631-20.968 119.622c2.54 105.675 43.175 197.74 121.905 276.196s180.317 119.611 304.762 123.464c124.446-3.853 226.030-45.008 304.762-123.464s119.363-170.522 121.905-276.196c-2.542-105.675-43.173-197.741-121.905-276.198s-180.316-119.609-304.762-123.464c-69.201 0-134.918 15.372-197.15 46.115l-167.589-55.768zM512.031 404.637c-8.899 0-16.995 2.080-24.29 6.241s-13.166 10.248-17.615 18.261c-4.45 8.014-6.674 16.181-6.674 24.502s2.225 16.489 6.674 24.502c4.45 8.014 10.322 14.101 17.615 18.261s15.39 6.241 24.29 6.241c13.979 0 25.57-4.642 34.773-13.927s13.806-20.977 13.806-35.078c0-14.101-4.602-25.794-13.806-35.078s-20.795-13.927-34.773-13.927v0zM694.887 404.637c-8.899 0-16.994 2.080-24.29 6.241s-13.166 10.248-17.615 18.261c-4.45 8.014-6.674 16.181-6.674 24.502s2.225 16.489 6.674 24.502c4.45 8.014 10.319 14.101 17.615 18.261s15.39 6.241 24.29 6.241c13.976 0 25.57-4.642 34.773-13.927s13.806-20.977 13.806-35.078c0-14.101-4.602-25.794-13.806-35.078s-20.797-13.927-34.773-13.927v0zM329.173 404.637c-8.899 0-16.995 2.080-24.29 6.241s-13.166 10.248-17.615 18.261c-4.45 8.014-6.674 16.181-6.674 24.502s2.225 16.489 6.674 24.502c4.45 8.014 10.322 14.101 17.615 18.261s15.39 6.241 24.29 6.241c13.979 0 25.57-4.642 34.773-13.927s13.806-20.977 13.806-35.078c0-14.101-4.602-25.794-13.806-35.078s-20.795-13.927-34.773-13.927v0z" />
<glyph unicode="&#xe923;" glyph-name="chat-dot-square" d="M267.914 234.936h539.504c18.465 0.67 33.851 7.115 46.146 19.333s18.793 27.47 19.495 45.761v423.114c-0.676 18.313-7.175 33.567-19.495 45.761s-27.701 18.638-46.146 19.333h-590.769c-18.467-0.672-33.849-7.117-46.146-19.333s-18.795-27.47-19.495-45.761v-580.772l116.907 92.564zM290.462 169.842l-151.795-120.034c-10.94-8.137-22.395-9.322-34.363-3.548s-18.292 15.44-18.97 29v647.885c0.678 36.627 13.5 67.308 38.466 92.043s55.904 37.451 92.816 38.145h590.769c36.936-0.672 67.873-13.388 92.816-38.145s37.763-55.439 38.466-92.043v-423.114c-0.676-36.629-13.502-67.308-38.466-92.043s-55.906-37.449-92.816-38.145h-516.923zM512 475.981c-15.053 0-27.536 4.915-37.448 14.744s-14.868 22.208-14.868 37.136c0 14.928 4.956 27.307 14.868 37.136s22.395 14.744 37.448 14.744c15.053 0 27.536-4.915 37.448-14.744s14.868-22.208 14.868-37.136c0-14.928-4.956-27.307-14.868-37.136s-22.395-14.744-37.448-14.744v0zM708.923 475.981c-15.051 0-27.536 4.915-37.448 14.744s-14.868 22.208-14.868 37.136c0 14.928 4.956 27.307 14.868 37.136s22.397 14.744 37.448 14.744c15.051 0 27.536-4.915 37.448-14.744s14.868-22.208 14.868-37.136c0-14.928-4.956-27.307-14.868-37.136s-22.397-14.744-37.448-14.744zM315.077 475.981c-15.053 0-27.536 4.915-37.448 14.744s-14.868 22.208-14.868 37.136c0 14.928 4.956 27.307 14.868 37.136s22.395 14.744 37.448 14.744c15.053 0 27.536-4.915 37.448-14.744s14.868-22.208 14.868-37.136c0-14.928-4.956-27.307-14.868-37.136s-22.395-14.744-37.448-14.744z" />
<glyph unicode="&#xe924;" glyph-name="chat-line-round" d="M191.086 123.152l128.579 43.225 22.857-10.576c52.074-26.906 108.587-40.366 169.539-40.366 103.497 3.197 189.683 37.304 258.56 102.313 68.876 65.016 104.594 143.633 107.154 235.863-2.542 92.229-38.26 170.85-107.154 235.861s-155.082 99.116-258.56 102.313c-103.497-3.197-189.684-37.302-258.56-102.313s-104.594-143.632-107.154-235.861c0-33.305 5.72-66.293 17.158-98.962s28.262-63.412 50.469-92.231l20.968-27.853-43.855-111.413zM147.261 44.357c-12.069-3.849-22.39-1.125-30.964 8.178-8.574 9.309-10.636 20.038-6.187 32.188l55.253 140.281c-25.396 33.94-45.084 70.291-59.063 109.047s-20.968 78.631-20.968 119.622c2.54 105.675 43.175 197.74 121.905 276.196s180.317 119.611 304.762 123.464c124.446-3.853 226.030-45.008 304.762-123.464s119.363-170.522 121.905-276.196c-2.542-105.675-43.173-197.741-121.905-276.198s-180.316-119.609-304.762-123.464c-69.201 0-134.918 15.372-197.15 46.115l-167.589-55.768zM359.65 392.155h304.762c20.315 0 30.476-10.248 30.476-30.743s-10.161-30.743-30.476-30.743h-304.762c-20.317 0-30.476 10.248-30.476 30.743s10.159 30.743 30.476 30.743zM390.126 576.614h243.809c20.315 0 30.476-10.248 30.476-30.743s-10.161-30.743-30.476-30.743h-243.809c-20.317 0-30.476 10.248-30.476 30.743s10.159 30.743 30.476 30.743z" />
<glyph unicode="&#xe925;" glyph-name="chat-line-square" d="M150.974 142.372l116.939 92.564h539.504c18.465 0.67 33.851 7.115 46.146 19.333s18.793 27.47 19.495 45.761v423.114c-0.676 18.313-7.175 33.567-19.495 45.761s-27.701 18.638-46.146 19.333h-590.769c-18.467-0.672-33.849-7.117-46.146-19.333s-18.795-27.47-19.495-45.761v-580.772h-0.033zM290.462 169.842l-151.795-120.034c-10.94-8.137-22.395-9.322-34.363-3.548s-18.292 15.44-18.97 29v647.885c0.678 36.627 13.5 67.308 38.466 92.043s55.904 37.451 92.816 38.145h590.769c36.936-0.672 67.873-13.388 92.816-38.145s37.763-55.439 38.466-92.043v-423.114c-0.676-36.629-13.502-67.308-38.466-92.043s-55.906-37.449-92.816-38.145h-516.923zM347.897 462.767h328.205c21.878 0 32.821-10.849 32.821-32.547s-10.942-32.547-32.821-32.547h-328.205c-21.88 0-32.821 10.849-32.821 32.547s10.94 32.547 32.821 32.547zM347.897 658.050h328.205c21.878 0 32.821-10.849 32.821-32.547s-10.942-32.547-32.821-32.547h-328.205c-21.88 0-32.821 10.849-32.821 32.547s10.94 32.547 32.821 32.547z" />
<glyph unicode="&#xe926;" glyph-name="chat-round" d="M191.055 123.157l123.825 42.273 21.912-11.529c52.073-25.622 110.487-38.43 175.238-38.43 108.576 2.564 196.194 35.866 262.857 99.919s100.949 143.473 102.857 238.268c-1.908 95.43-36.035 175.017-102.37 238.76s-154.118 96.886-263.345 99.427c-109.207-2.562-196.988-35.705-263.345-99.427s-100.48-143.309-102.37-238.76c0-35.868 5.719-70.455 17.158-103.762 11.439-33.308 27.632-64.053 48.579-92.233l20.968-27.854-41.966-106.652zM147.23 44.36c-12.069-3.855-22.39-1.125-30.964 8.178s-10.636 20.033-6.187 32.189l53.333 135.459c-25.397 33.942-44.759 70.773-58.088 110.495s-19.992 80.714-19.992 122.977c1.28 105.678 39.538 197.747 114.773 276.206s179.2 119.615 311.893 123.469c132.693-3.853 236.66-45.010 311.893-123.469s113.493-170.528 114.773-276.206c-1.28-105.678-39.692-197.747-115.23-276.206s-179.352-119.614-311.436-123.469c-76.19 0.633-143.492 15.692-201.905 45.163l-162.865-54.786z" />
<glyph unicode="&#xe927;" glyph-name="chat-square" d="M267.914 234.936h539.504c18.465 0.67 33.851 7.115 46.146 19.333s18.793 27.47 19.495 45.761v423.114c-0.676 18.313-7.175 33.567-19.495 45.761s-27.701 18.638-46.146 19.333h-590.769c-18.467-0.672-33.849-7.117-46.146-19.333s-18.795-27.47-19.495-45.761v-580.772l116.907 92.564zM290.462 169.842l-151.795-120.034c-10.94-8.137-22.395-9.322-34.363-3.548s-18.292 15.44-18.97 29v647.885c0.678 36.627 13.5 67.308 38.466 92.043s55.904 37.451 92.816 38.145h590.769c36.936-0.672 67.873-13.388 92.816-38.145s37.763-55.439 38.466-92.043v-423.114c-0.676-36.629-13.502-67.308-38.466-92.043s-55.906-37.449-92.816-38.145h-516.923z" />
<glyph unicode="&#xe928;" glyph-name="check" d="M373.68 230.688l-229.027 238.171c-9.401 9.776-20.62 12.786-33.656 9.030s-21.176-12.221-24.417-25.392c-3.242-13.171-0.163-25.019 9.239-35.542l277.861-288.955 555.721 577.911c6.509 7.537 9.586 16.194 9.239 25.97s-3.973 18.24-10.871 25.392c-6.898 7.152-14.866 10.727-23.896 10.727s-17.172-3.383-24.417-10.15l-505.776-527.163z" />
<glyph unicode="&#xe929;" glyph-name="circle-check" d="M512 78.222c104.647 2.57 191.791 38.685 261.433 108.345s105.756 156.806 108.345 261.433c-2.57 104.647-38.685 191.791-108.345 261.433s-156.806 105.756-261.433 108.345c-104.647-2.568-191.791-38.683-261.433-108.345s-105.756-156.806-108.345-261.433c2.568-104.647 38.683-191.791 108.345-261.433s156.806-105.756 261.433-108.345zM512 21.333c-120.645 3.17-221.125 44.91-301.44 125.227s-122.057 180.795-125.227 301.44c3.17 120.645 44.912 221.125 125.227 301.44s180.795 122.057 301.44 125.227c120.645-3.17 221.123-44.912 301.44-125.227s122.057-180.795 125.227-301.44c-3.17-120.645-44.91-221.123-125.227-301.44s-180.795-122.057-301.44-125.227v0zM690.66 553.785c5.934 5.329 12.754 7.993 20.452 7.993s14.364-2.816 19.996-8.448c5.632-5.632 8.448-12.298 8.448-19.996s-2.662-14.516-7.993-20.452l-256-256c-5.935-5.33-12.753-7.993-20.452-7.993s-14.516 2.662-20.452 7.993l-142.222 142.222c-5.329 5.935-7.993 12.753-7.993 20.452s2.816 14.364 8.448 19.996c5.632 5.632 12.298 8.448 19.996 8.448s14.516-2.664 20.452-7.993l121.771-122.681 235.548 236.459z" />
<glyph unicode="&#xe92a;" glyph-name="circle-close" d="M469.15 448l-86.674 85.73c-5.709 6.359-8.564 13.664-8.564 21.912s3.017 15.39 9.051 21.425c6.034 6.034 13.176 9.051 21.425 9.051s15.553-2.854 21.912-8.564l85.73-86.674 85.73 86.674c8.899 8.249 18.895 10.789 29.989 7.619s18.237-10.311 21.425-21.425c3.188-11.113 0.652-21.11-7.619-29.989l-86.674-85.73 86.674-85.73c8.247-8.899 10.789-18.895 7.619-29.989s-10.313-18.237-21.425-21.425c-11.113-3.188-21.11-0.652-29.989 7.619l-85.73 86.674-85.73-86.674c-6.359-5.711-13.664-8.564-21.912-8.564s-15.39 3.017-21.425 9.051c-6.034 6.034-9.051 13.176-9.051 21.425s2.854 15.553 8.564 21.912l86.674 85.669zM512 82.286c103.497 2.542 189.684 38.26 258.56 107.154s104.594 155.083 107.154 258.56c-2.542 103.497-38.26 189.684-107.154 258.56s-155.083 104.594-258.56 107.154c-103.497-2.54-189.684-38.258-258.56-107.154s-104.594-155.083-107.154-258.56c2.54-103.497 38.258-189.684 107.154-258.56s155.083-104.594 258.56-107.154zM512 21.333c-120.645 3.17-221.125 44.91-301.44 125.227s-122.057 180.795-125.227 301.44c3.17 120.645 44.912 221.125 125.227 301.44s180.795 122.057 301.44 125.227c120.645-3.17 221.123-44.912 301.44-125.227s122.057-180.795 125.227-301.44c-3.17-120.645-44.91-221.123-125.227-301.44s-180.795-122.057-301.44-125.227z" />
<glyph unicode="&#xe92b;" glyph-name="circle-plus-outline" d="M512 874.667c120.645-3.17 221.123-44.912 301.44-125.227s122.057-180.795 125.227-301.44c-3.17-120.645-44.91-221.123-125.227-301.44s-180.795-122.057-301.44-125.227c-120.645 3.17-221.125 44.91-301.44 125.227s-122.057 180.795-125.227 301.44c3.17 120.645 44.912 221.125 125.227 301.44s180.795 122.057 301.44 125.227zM512 813.714c-103.497-2.54-189.684-38.258-258.56-107.154s-104.594-155.083-107.154-258.56c2.54-103.497 38.258-189.684 107.154-258.56s155.083-104.594 258.56-107.154c103.497 2.542 189.684 38.26 258.56 107.154s104.594 155.083 107.154 258.56c-2.542 103.497-38.26 189.684-107.154 258.56s-155.083 104.594-258.56 107.154zM512 630.857c8.899 0 16.203-2.854 21.912-8.564s8.564-13.013 8.564-21.912v-121.886l121.905-0.018c8.899 0 16.201-2.854 21.912-8.564s8.564-13.013 8.564-21.912c0-8.899-2.853-16.203-8.564-21.912s-13.013-8.564-21.912-8.564h-121.905v-121.905c0-8.899-2.854-16.201-8.564-21.912s-13.013-8.564-21.912-8.564c-8.899 0-16.203 2.853-21.912 8.564s-8.564 13.013-8.564 21.912l-0.018 121.905h-121.886c-8.899 0-16.203 2.854-21.912 8.564s-8.564 13.013-8.564 21.912c0 8.899 2.854 16.203 8.564 21.912s13.013 8.564 21.912 8.564l121.886 0.018 0.018 121.886c0 8.899 2.854 16.203 8.564 21.912s13.013 8.564 21.912 8.564z" />
<glyph unicode="&#xe92c;" glyph-name="circle-plus" d="M512 874.667c120.645-3.17 221.123-44.912 301.44-125.227s122.057-180.795 125.227-301.44c-3.17-120.645-44.91-221.123-125.227-301.44s-180.795-122.057-301.44-125.227c-120.645 3.17-221.125 44.91-301.44 125.227s-122.057 180.795-125.227 301.44c3.17 120.645 44.912 221.125 125.227 301.44s180.795 122.057 301.44 125.227v0zM475.825 484.175h-140.952c-10.159 0-18.732-3.494-25.722-10.484s-10.484-15.563-10.484-25.722c0-10.159 3.494-18.732 10.484-25.722s15.563-10.484 25.722-10.484h140.952v-140.952c0-10.161 3.494-18.731 10.484-25.722s15.563-10.484 25.722-10.484c10.159 0 18.732 3.493 25.722 10.484s10.484 15.561 10.484 25.722v140.952h140.952c10.161 0 18.731 3.494 25.722 10.484s10.484 15.563 10.484 25.722c0 10.159-3.493 18.732-10.484 25.722s-15.561 10.484-25.722 10.484h-140.952v140.952c0 10.159-3.494 18.732-10.484 25.722s-15.563 10.484-25.722 10.484c-10.159 0-18.732-3.494-25.722-10.484s-10.484-15.563-10.484-25.722v-140.952z" />
<glyph unicode="&#xe92d;" glyph-name="close-notification" d="M572.935 81.502c-0.63-17.183-6.664-31.502-18.102-42.943s-25.721-17.177-42.848-17.196c-17.127-0.018-31.409 5.711-42.848 17.196s-17.473 25.796-18.102 42.943h121.9zM511.985 874.667c17.127 0.020 31.409-5.712 42.848-17.196s17.473-25.799 18.102-42.943v-5.742c31.755-7.005 61.438-18.295 89.048-33.872 15.104-8.521 29.402-18.237 42.894-29.146l89.947 90.72c6.357 5.721 13.5 8.583 21.424 8.583s14.915-3.024 20.967-9.071c6.052-6.047 9.234-13.205 9.539-21.472s-2.395-15.587-8.106-21.96l-670.452-675.758c-6.359-5.724-13.5-8.583-21.424-8.583s-14.913 3.024-20.967 9.071c-6.054 6.047-9.234 13.054-9.539 21.013l0.172 4.28-0.629-0.004c-8.899 0-16.202 2.859-21.912 8.583s-8.564 13.042-8.564 21.96c0 8.918 2.854 16.237 8.564 21.96s13.013 8.583 21.912 8.583l52 0.017 39.424 39.765 0.002 265.645c1.28 74.442 24.136 138.867 68.569 193.274s102.843 89.877 175.232 106.411v5.742c0.63 17.185 6.664 31.499 18.102 42.943s25.721 17.175 42.848 17.196zM772.943 666.61c13.976-23.539 24.776-48.512 32.395-74.921s11.428-53.929 11.428-82.557v-305.427h91.425c8.899 0 16.201-2.859 21.912-8.583s8.564-13.042 8.564-21.96c0-8.918-2.852-16.237-8.564-21.96s-13.013-8.583-21.912-8.583h-654.27l60.92 61.055h440.944v305.427c-0.628 40.723-9.52 78.271-26.666 112.642l43.823 44.867zM424.826 736.247c-47.927-18.469-85.859-48.054-113.794-88.757s-42.218-86.833-42.848-138.389l-0.024-204.119 393.37 396.985c-27.276 21.698-58.087 36.627-92.435 44.787-48.252 11.463-96.342 7.961-144.269-10.507z" />
<glyph unicode="&#xe92e;" glyph-name="close" d="M862.628 861.226l-350.605-350.606-350.607 350.606c-9.291 8.341-19.723 12.511-31.299 12.511s-21.786-4.408-30.631-13.223c-8.846-8.815-13.253-19.025-13.223-30.631s4.199-22.038 12.511-31.299l350.607-350.606-350.607-350.605c-12.051-12.048-15.998-26.428-11.843-43.141s14.365-27.14 30.631-31.299c16.265-4.158 30.868-0.205 43.809 11.843l350.607 350.605 350.605-350.605c9.287-8.343 19.723-12.511 31.299-12.511s21.789 4.408 30.631 13.223c8.842 8.815 13.25 19.028 13.223 30.631s-4.203 22.038-12.511 31.299l-350.605 350.605 350.605 350.606c12.048 12.051 16.001 26.431 11.843 43.141s-14.585 27.144-31.299 31.299c-16.713 4.156-31.094 0.208-43.141-11.843z" />
<glyph unicode="&#xe92f;" glyph-name="cloudy-and-sunny" d="M330.814 853.328c50.471-0.312 95.711-14.306 135.718-41.982 32.198-22.273 57.816-51.176 76.853-86.707 53.66 10.045 109.018 5.958 166.025-12.281 80.017-29.279 140.656-79.392 181.923-150.341s55.549-149.362 42.852-235.242c-16.519-85.256-56.049-154.070-118.59-206.441s-136.358-78.235-221.452-77.591l0.030-0.062h-257.173c-67.315-0.643-124.462 20.835-171.439 64.441s-73.644 99.894-80.005 168.864c-2.462 66.893 15.371 124.605 53.5 173.135-24.788 31.736-41.031 67.248-48.746 106.493-9.529 48.479-4.612 96.635 14.751 144.469s49.212 85.411 89.544 112.732c40.333 27.321 85.734 40.826 136.206 40.514zM498.93 646.449c-60.956-25.697-107.627-70.115-140.016-133.255l-15.239-30.268-33.343-3.905c-50.167-6.518-90.489-28.477-120.967-65.878s-44.762-81.819-42.852-133.254c5.080-52.059 25.236-94.365 60.468-126.914s78.247-48.491 129.044-47.823h259.093c69.855-0.643 130.335 20.347 181.435 62.973s83.327 99.082 96.676 169.363c11.441 70.282 0.171 134.546-33.8 192.791s-83.662 99.082-149.068 122.509c-66.664 21.47-130.476 19.356-191.431-6.341zM325.084 791.823c-37.772-0.979-71.43-12.203-100.973-33.673s-51.132-50.426-64.766-86.869c-13.633-36.442-16.336-72.718-8.107-108.828 5.825-25.562 16.437-48.766 31.833-69.611 34.041 26.105 74.548 42.312 121.562 48.683 39.378 76.8 96.362 130.974 170.951 162.523l7.056 2.824c-14.147 22.815-32.377 41.532-54.693 56.15-30.803 20.179-65.091 29.779-102.863 28.8z" />
<glyph unicode="&#xe930;" glyph-name="cloudy" d="M726.345 566.613l-31.411 7.763-11.425 31.052c-14.606 39.457-38.406 70.188-71.414 92.194-33.005 22.006-70.134 31.714-111.386 29.127s-76.959-16.986-107.121-43.194c-30.162-26.208-49.996-59.683-59.501-100.423l-8.561-37.853-37.139-8.726c-46.33-11.655-82.351-36.238-108.065-73.749s-36.662-80.529-32.843-129.054c6.357-47.881 26.354-87.020 59.989-117.408 33.635-30.394 74.257-46.237 121.866-47.541h350.366c26.67 0 51.897 5.173 75.679 15.526 23.782 10.347 45.048 25.065 63.797 44.156 18.749 19.085 33.19 40.759 43.324 65.022 10.133 24.262 15.215 49.973 15.233 77.134-0.628 47.22-14.758 88.623-42.379 124.209s-63.962 59.527-109.010 71.824v-0.062zM740.634 626.792c59.026-15.526 106.469-46.579 142.34-93.157s54.432-100.92 55.693-163.025c-1.907-74.401-27.134-136.505-75.679-186.313s-109.637-75.687-183.287-77.631h-350.366c-63.472 1.304-117.58 22.327-162.326 63.067s-71.566 93.145-80.462 157.217c-5.707 64.692 8.734 121.943 43.324 171.751s82.666 82.806 144.23 98.995c13.324 54.342 40.145 98.819 80.462 133.432s87.765 53.855 142.34 57.726c55.226 3.229 104.734-9.875 148.525-39.312 43.793-29.438 75.527-70.355 95.208-122.75v0z" />
<glyph unicode="&#xe931;" glyph-name="code" d="M379.156 789.333c6.984 0 13.091-2.758 18.327-8.273s7.85-11.954 7.85-19.315c0-7.361-2.615-13.799-7.85-19.315v0l-272.385-294.431 272.385-294.431c5.235-5.518 7.85-11.954 7.85-19.315s-2.615-13.797-7.85-19.315c-5.235-5.518-11.342-8.273-18.327-8.273s-13.093 2.456-18.327 7.361v0l-288.98 313.746c-5.233 6.124-7.85 13.024-7.85 20.698s2.617 14.27 7.85 19.786v0l288.98 313.745c5.234 4.878 11.342 7.331 18.327 7.331zM644.844 789.333c6.984 0 13.093-2.454 18.327-7.361v0.029l288.98-313.745c5.233-5.516 7.85-12.111 7.85-19.786s-2.617-14.574-7.85-20.698l-288.98-313.746c-5.234-4.905-11.342-7.361-18.327-7.361s-13.091 2.756-18.327 8.273c-5.235 5.518-7.85 11.954-7.85 19.315s2.615 13.797 7.85 19.315l272.385 294.431-272.385 294.431c-5.235 5.516-7.85 11.954-7.85 19.315s2.615 13.799 7.85 19.315c5.235 5.516 11.342 8.273 18.327 8.273z" />
<glyph unicode="&#xe932;" glyph-name="coffee-cup" d="M755.368 750.278c33.624 0 64.555-8.191 92.8-24.573s50.606-39.211 67.095-68.489c16.489-29.278 24.261-59.976 23.329-92.095s-10.13-62.505-27.593-91.158c-17.464-28.653-40.616-50.536-69.47-65.648s-60.102-22.044-93.744-20.795c-15.228-54.163-44.253-97.764-87.074-130.812s-92.475-49.889-148.961-50.536h-182.737c-69.155 1.892-126.576 25.51-172.26 70.847s-69.481 102.321-71.389 170.951v332.472c0 8.826 2.853 16.070 8.558 21.732s13.005 8.493 21.898 8.493h609.122c8.893 0 16.19-2.831 21.898-8.493s8.558-12.906 8.558-21.732v-30.225l-0.030 0.060zM755.368 689.828v-241.798c34.275 0.625 62.983 12.433 86.13 35.423s35.043 51.483 35.695 85.476c-0.627 34.013-12.53 62.505-35.695 85.476s-51.879 34.779-86.13 35.423zM115.789 145.783h609.122c8.893 0 16.19-2.829 21.898-8.493s8.558-12.906 8.558-21.732c0-8.826-2.851-16.067-8.558-21.732s-13.005-8.493-21.898-8.493h-609.122c-8.893 0-16.192 2.829-21.898 8.493s-8.558 12.906-8.558 21.732c0 8.826 2.853 16.067 8.558 21.732s13.005 8.493 21.898 8.493zM146.246 750.278v-302.248c1.279-51.644 19.045-94.462 53.298-128.455 34.253-33.991 77.399-51.624 129.438-52.893h182.737c52.039 1.269 95.186 18.903 129.438 52.893 34.251 33.993 52.019 76.811 53.298 128.455v302.248h-548.21z" />
<glyph unicode="&#xe933;" glyph-name="coffee" d="M810.073 752.736h13.434c7.668 0 14.225-2.377 19.66-7.131 5.441-4.754 8.796-10.941 10.060-18.559l21.102-121.9c1.288-8.899-1.104-16.995-7.177-24.289s-13.9-10.941-23.494-10.941h-46.957l-37.388-519.997c-0.632-8.247-3.834-15.073-9.6-20.479-5.766-5.4-12.796-8.106-21.102-8.106h-433.223c-8.302 0-15.335 2.706-21.102 8.106-5.766 5.406-8.966 12.233-9.6 20.479l-37.388 519.997h-46.957c-9.59 0-17.421 3.647-23.494 10.941s-8.465 15.39-7.177 24.289l21.102 121.9c1.288 7.619 4.641 13.805 10.060 18.559s11.971 7.131 19.66 7.131h13.434l-6.717 89.536c0 8.899 3.036 16.517 9.109 22.856s13.26 9.518 21.562 9.539h547.288c8.956 0 16.464-3.18 22.512-9.539 6.054-6.359 8.772-13.978 8.158-22.856l-5.766-89.536zM747.781 752.736l4.785 60.95h-481.162l3.834-60.95h472.543zM222.545 630.836h584.676l-9.6 60.95h-571.242l-9.6-60.95h5.766zM288.672 569.886l35.455-487.602h375.715l35.455 487.602h-446.626z" />
<glyph unicode="&#xe934;" glyph-name="coin" d="M511.984 874.667c119.659-1.378 219.823-23.083 300.493-65.113s122.724-96.904 126.157-164.621c-1.835-36.394-14.839-69.082-39.010-98.065 8.472-9.915 15.671-20.308 21.616-31.145 11.618-21.18 17.427-43.748 17.427-67.706-1.836-36.409-14.849-69.109-39.039-98.1 8.489-9.91 15.676-20.288 21.612-31.109 11.618-21.182 17.427-43.748 17.427-67.706-3.413-67.693-45.468-122.567-126.157-164.621s-180.856-63.755-300.493-65.113c-119.659 1.378-219.823 23.085-300.493 65.113s-122.722 96.902-126.157 164.621c0 23.938 5.984 46.505 17.952 67.706 6.001 10.632 13.164 20.831 21.487 30.599-24.419 29.098-37.581 61.975-39.439 98.611 0 23.936 5.984 46.505 17.952 67.706 6.001 10.632 13.164 20.831 21.487 30.599-24.441 29.069-37.613 61.959-39.472 98.611 3.413 67.695 45.466 122.569 126.157 164.621s180.856 63.757 300.493 65.113zM850.315 305.948l-6.951-4.635c-9.566-6.211-19.851-12.184-30.854-17.919-80.689-42.055-180.856-63.755-300.493-65.113-119.659 1.378-219.823 23.085-300.493 65.113-13.708 7.142-26.302 14.656-37.78 22.54-14.607-17.35-22.178-35.628-22.739-54.834 2.735-43.761 37.775-81.707 105.12-113.85s152.642-48.888 255.892-50.246c103.249 1.378 188.547 18.129 255.892 50.246s102.383 70.069 105.12 113.85c-0.559 19.222-8.131 37.507-22.714 54.847zM850.315 502.863l-6.984-4.634c-9.566-6.211-19.851-12.184-30.854-17.919-80.689-42.053-180.856-63.757-300.493-65.113-119.659 1.378-219.823 23.083-300.493 65.113-13.692 7.134-26.271 14.637-37.738 22.511-14.616-17.32-22.188-35.599-22.748-54.805 2.735-43.759 37.775-81.709 105.12-113.85 67.345-32.143 152.642-48.888 255.892-50.246 103.249 1.378 188.547 18.129 255.892 50.246 67.345 32.119 102.383 70.069 105.12 113.85-0.559 19.224-8.131 37.506-22.714 54.847zM511.984 809.028c-103.249-1.378-188.547-18.127-255.892-50.246s-102.385-70.069-105.12-113.85c2.735-43.759 37.775-81.709 105.12-113.85s152.642-48.89 255.892-50.246c103.249 1.378 188.547 18.127 255.892 50.246s102.383 70.069 105.12 113.85c-2.737 43.759-37.775 81.709-105.12 113.85s-152.642 48.89-255.892 50.246z" />
<glyph unicode="&#xe935;" glyph-name="cold-drink" d="M755.929 868.3c37.476-0.625 71.135-10.709 100.99-30.253s52.083-46.49 66.697-80.837c14.614-34.348 18.582-69.018 11.919-104.011s-23.015-65.882-49.047-92.666c-26.032-26.785-56.68-43.958-91.937-51.522s-70.343-4.73-105.258 8.501l-207.681-274.188v-161.674h91.449c8.901 0 16.207-2.832 21.917-8.501s8.566-12.918 8.566-21.752c0-8.834-2.856-16.083-8.566-21.752s-13.016-8.501-21.917-8.501h-243.864c-8.901 0-16.207 2.832-21.917 8.501s-8.566 12.918-8.566 21.752c0 8.834 2.855 16.083 8.566 21.752s13.016 8.501 21.917 8.501h91.449v161.674l-322.937 426.393c-8.251 11.355-12.376 23.648-12.376 36.879v10.407c0 8.188 2.855 15.127 8.566 20.814s13.016 8.844 21.917 9.469h68.587l-62.886 78.477c-5.081 6.938-7.143 14.501-6.188 22.69s4.928 14.804 11.919 19.846c6.99 5.042 14.449 7.089 22.375 6.141s14.754-4.568 20.485-10.861l91.449-116.294h321.992c13.331 36.566 35.563 65.72 66.697 87.463 31.135 21.742 66.38 32.925 105.745 33.551h-0.061zM650.184 747.287h136.228c8.901-0.626 16.205-3.782 21.917-9.469s8.566-12.626 8.566-20.814v-10.407c0-13.231-4.127-25.211-12.376-35.941l-76.207-102.105c31.111-6.313 60.009-2.219 86.694 12.283s45.103 36.879 55.266 67.132c10.163 30.253 9.206 59.246-2.865 86.979s-32.708 48.062-61.911 60.991c-29.203 12.928-58.253 14.824-87.151 5.688s-51.596-27.571-68.099-55.303v0.938l-0.061 0.030zM309.17 686.78l122.877-156.955c5.080-6.938 7.143-14.34 6.188-22.206s-4.766-14.33-11.431-19.392c-6.666-5.063-13.972-7.271-21.917-6.626s-14.774 4.114-20.485 10.407l-152.415 194.772h-70.507l289.588-382.888 289.589 382.888h-431.487z" />
<glyph unicode="&#xe936;" glyph-name="collection-tag" d="M256 811.239v-692.754l196 155.587c18.005 13.872 38.005 20.804 60 20.804s41.995-6.933 60-20.804l196-155.587v692.754h-512zM224 874.667h576c9.344 0 17.011-2.97 23.008-8.912s8.992-13.542 8.992-22.802v-789.861c-0.659-13.212-6.829-22.631-18.496-28.257s-22.835-4.472-33.504 3.457l-248 196.244c-5.995 4.63-12.661 6.945-20 6.945s-14.005-2.315-20-6.945l-248-196.244c-10.667-7.928-21.835-9.083-33.504-3.457s-17.835 15.045-18.496 28.257v789.861c0 9.26 2.997 16.861 8.992 22.802s13.664 8.912 23.008 8.912z" />
<glyph unicode="&#xe937;" glyph-name="collection" d="M844.444 874.667c8.825 0 16.066-2.761 21.73-8.283s8.492-12.587 8.492-21.194v-754.196c-0.623-19.595-6.607-35.924-17.952-48.971s-25.508-19.944-42.492-20.689h-559.111c-30.222 0.717-55.246 12.518-75.072 35.387s-30.061 51.709-30.706 86.518v613.518c0.624 33.172 12.432 60.96 35.42 83.363s51.479 33.919 85.468 34.548h574.222zM814.208 196.693l-580.79 0.028c-3.932-2.844-7.554-6.49-10.867-10.938-8.516-11.435-12.774-25.616-12.774-42.545s4.258-31.11 12.774-42.545c8.516-11.435 19.080-17.571 31.692-18.408h559.979l-0.014 114.408zM814.222 813.714l-181.348 0.024 0.014-304.525c-0.624-12.789-6.448-21.906-17.468-27.349s-21.568-4.328-31.643 3.346l-102 82.508-102-82.508c-10.074-7.674-20.622-8.789-31.643-3.346s-16.844 14.56-17.468 27.349v304.525l-60.444-0.024c-17.005-0.663-31.169-7.015-42.492-19.056s-17.307-27.076-17.952-45.105l-0.057-495.804c13.544 7.183 28.674 10.98 45.391 11.393l559.097 0.030 0.014 548.541zM572.444 813.714h-181.333v-243.81l90.667 74.784 90.667-74.784v243.81z" />
<glyph unicode="&#xe938;" glyph-name="connection" d="M633.905 561.768v-56.891h-182.857c-34.296-0.588-63.025-11.701-86.187-33.338s-35.068-48.453-35.718-80.444v-113.783c0.63-32.013 12.536-58.826 35.718-80.444s51.911-32.73 86.187-33.338h304.762c34.298 0.586 63.025 11.703 86.187 33.338s35.066 48.454 35.718 80.444v113.783c0 20.747-5.394 39.71-16.183 56.891s-25.71 31.11-44.77 41.787v62.239c36.187-12.44 65.39-32.883 87.619-61.329s33.658-61.632 34.286-99.56v-113.783c-1.28-48.602-19.060-88.904-53.333-120.894s-77.452-48.585-129.524-49.78h-304.762c-52.073 1.195-95.248 17.79-129.524 49.78s-52.053 72.292-53.333 120.894v113.783c1.28 48.604 19.058 88.902 53.333 120.894s77.45 48.585 129.524 49.78l182.857-0.028zM390.095 334.203v56.891h182.857c34.296 0.588 63.025 11.701 86.187 33.338s35.066 48.453 35.718 80.444v113.783c-0.628 32.011-12.538 58.826-35.718 80.444s-51.911 32.731-86.187 33.338h-304.762c-34.296-0.588-63.025-11.701-86.187-33.338s-35.068-48.453-35.718-80.444v-113.783c0-20.747 5.394-39.71 16.183-56.891s25.712-31.11 44.77-41.787v-62.239c-36.835 12.44-66.205 33.186-88.107 62.239s-33.168 61.945-33.798 98.678v113.783c1.28 48.604 19.058 88.902 53.333 120.894s77.45 48.585 129.524 49.78h304.762c52.073-1.195 95.25-17.788 129.524-49.78s52.053-72.29 53.333-120.894v-113.783c-1.28-48.604-19.060-88.902-53.333-120.894s-77.45-48.585-129.524-49.78h-182.857z" />
<glyph unicode="&#xe939;" glyph-name="conversion" d="M908.189 570.080c8.899 0 16.208-2.859 21.913-8.576 5.711-5.718 8.564-13.032 8.564-21.944s-2.853-16.227-8.564-21.944c-5.705-5.718-13.014-8.576-21.913-8.576h-749.558c-6.359 0-11.917 1.749-16.671 5.249s-8.401 8.108-10.941 13.825c-2.546 5.717-3.179 11.597-1.92 17.64s4.114 11.292 8.564 15.748l282.86 283.253c5.71 5.717 12.852 8.576 21.426 8.576s15.717-2.859 21.426-8.576c6.36-6.369 9.539-13.52 9.539-21.455s-3.179-15.087-9.539-21.455l-231.445-231.766h676.26zM865.338 386.962c6.364 0 11.917-1.75 16.671-5.249s8.406-8.108 10.941-13.825c2.548-5.718 3.182-11.597 1.92-17.64-1.256-6.043-4.114-11.292-8.564-15.748l-282.858-283.256c-5.709-5.713-12.851-8.576-21.426-8.576s-15.716 2.863-21.426 8.576c-6.359 6.373-9.539 13.52-9.539 21.455s3.18 15.089 9.539 21.455l231.443 231.769h-676.229c-8.899 0-16.204 2.858-21.913 8.576s-8.564 13.032-8.564 21.944c0 8.912 2.855 16.226 8.564 21.944s13.014 8.576 21.913 8.576h749.527z" />
<glyph unicode="&#xe93a;" d="M829.471 533.521c-104.394 159.555-64.655 246.558-64.655 246.558-49.605 6.358-112.246-61.949-132.588-147.341-1.895 0.444-3.795 0.882-5.702 1.285-33.242 115.295 26.044 304.646 26.044 304.646-153.655 0-308.123-267.876-341.056-323.804l-5.238-2.777c3.742 57.692 27.998 106.853 27.998 106.853-42.371 18.956-123.43-105.746-161.156-171.229-63.384-114.555-122.871-292.753-62.98-416.218 82.265-169.595 259.754-174.16 426.379-174.16 111.712 0 247.845 12.782 335.337 94.906 74.698 70.125 79.396 194.43 49.985 286.353-21.892 68.414-52.996 134.761-92.367 194.928z" />
<glyph unicode="&#xe93b;" d="M494.46 203.234c0-86.701-68.646-156.985-153.328-156.985-84.67 0-153.322 70.284-153.322 156.985 0 86.689 68.652 156.985 153.322 156.985 84.682 0 153.328-70.296 153.328-156.985z" />
<glyph unicode="&#xe93c;" d="M838.287 203.234c0-86.701-68.652-156.985-153.322-156.985-84.676 0-153.328 70.284-153.328 156.985 0 86.689 68.652 156.985 153.328 156.985 84.67 0 153.322-70.296 153.322-156.985z" />
<glyph unicode="&#xe93d;" d="M768.014 217.513c-6.985 0-12.645 5.642-12.645 12.604s5.66 12.604 12.645 12.604c6.985 0 12.645-5.642 12.645-12.604s-5.66-12.604-12.645-12.604zM735.674 282.594c-40.856 0-63.366-31.436-63.366-69.177 0-37.747 22.51-69.189 63.366-69.189s63.366 31.442 63.366 69.189c0 37.741-22.51 69.177-63.366 69.177z" />
<glyph unicode="&#xe93e;" d="M417.296 217.513c-6.991 0-12.651 5.642-12.651 12.604s5.66 12.604 12.651 12.604c6.979 0 12.645-5.642 12.645-12.604s-5.666-12.604-12.645-12.604zM391.858 282.594c-40.862 0-63.372-31.436-63.372-69.177 0-37.747 22.51-69.189 63.372-69.189 40.856 0 63.36 31.442 63.36 69.189 0 37.741-22.504 69.177-63.36 69.177z" />
<glyph unicode="&#xe93f;" glyph-name="cook2" d="M652.57 938.667c0 0-59.286-189.345-26.044-304.647 1.907-0.397 3.807-0.835 5.702-1.285 20.342 85.393 82.983 153.706 132.588 147.347 0 0-39.74-87.003 64.655-246.558 39.371-60.173 70.475-126.52 92.367-194.928 29.411-91.929 24.713-216.235-49.985-286.353-87.491-82.125-223.625-94.912-335.337-94.912-166.626 0-344.115 4.57-426.379 174.16-59.891 123.471-0.404 301.663 62.98 416.224 37.726 65.483 118.785 190.186 161.156 171.229 0 0-24.256-49.167-27.998-106.853v0l5.238 2.777c32.933 55.922 187.401 323.798 341.056 323.798zM684.963 360.218c-84.676 0-153.322-70.29-153.322-156.98 0-86.701 68.646-156.985 153.322-156.985s153.322 70.284 153.322 156.985c0 86.689-68.646 156.98-153.322 156.98zM341.127 360.218c-84.67 0-153.316-70.29-153.316-156.98 0-86.701 68.646-156.985 153.316-156.985 84.688 0 153.334 70.284 153.334 156.985 0 86.689-68.646 156.98-153.334 156.98zM735.674 282.595c40.856 0 63.366-31.436 63.366-69.177 0-37.747-22.51-69.189-63.366-69.189s-63.366 31.442-63.366 69.189c0 37.741 22.51 69.177 63.366 69.177zM391.858 282.595c40.856 0 63.36-31.436 63.36-69.177 0-37.747-22.504-69.189-63.36-69.189-40.862 0-63.372 31.442-63.372 69.189 0 37.741 22.51 69.177 63.372 69.177zM768.014 242.723c-6.985 0-12.645-5.642-12.645-12.604s5.66-12.604 12.645-12.604c6.985 0 12.645 5.642 12.645 12.604s-5.66 12.604-12.645 12.604zM417.296 242.723c-6.991 0-12.651-5.642-12.651-12.604s5.66-12.604 12.651-12.604c6.979 0 12.645 5.642 12.645 12.604s-5.666 12.604-12.645 12.604z" />
<glyph unicode="&#xe940;" glyph-name="cook3" d="M757.014 447.446c-1.899-99.248-113.737 339.339 4.187 427.141 0 0-400.93 14.9-450.666-362.782 0 0-54.136 117.235-137.539 139.245l-0.174-197.265c0 0-49.949-432.873 331.133-432.451 415.68 0.386 376.062 326.975 303.086 561.095 0 0-48.243-35.734-50.027-134.982z" />
<glyph unicode="&#xe941;" glyph-name="coordinate" d="M512 874.667c68.624-1.91 125.604-25.722 170.937-71.436s68.949-103.172 70.841-172.373c-1.892-69.201-25.508-126.659-70.841-172.373-38.494-38.817-85.384-61.843-140.671-69.076l-0.058-185.205 211.57-0.012c34.012-0.628 62.5-12.538 85.468-35.718s34.774-51.913 35.42-86.187v-60.952h-725.333v60.952c0.624 34.298 12.432 63.025 35.42 86.187s51.479 35.066 85.468 35.718l211.527 0.012-0.016 185.205c-55.287 7.234-102.177 30.259-140.671 69.076-45.333 45.714-68.947 103.172-70.841 172.373 1.894 69.201 25.508 126.659 70.841 172.373s102.312 69.527 170.937 71.436zM753.778 143.238h-483.556c-17.005-0.628-31.169-6.662-42.492-18.103s-17.307-25.722-17.952-42.85h604.444c-0.623 17.146-6.607 31.433-17.952 42.85s-25.508 17.451-42.492 18.103zM512 813.714c-51.64-1.28-94.455-19.058-128.444-53.333s-51.62-77.45-52.889-129.524c1.269-52.073 18.899-95.248 52.889-129.524s76.805-52.053 128.444-53.333c51.64 1.28 94.455 19.058 128.444 53.333s51.62 77.45 52.889 129.524c-1.269 52.073-18.901 95.248-52.889 129.524-33.99 34.275-76.805 52.053-128.444 53.333z" />
<glyph unicode="&#xe942;" glyph-name="copy-document" d="M755.81 143.238c-0.628-34.298-12.538-63.025-35.718-86.187s-51.913-35.066-86.187-35.718h-426.667c-34.296 0.628-63.025 12.538-86.187 35.718s-35.068 51.913-35.718 86.187v426.667c0.63 34.296 12.536 63.025 35.718 86.187s51.911 35.068 86.187 35.718v-60.952c-17.148-0.63-31.431-6.664-42.85-18.103s-17.452-25.722-18.103-42.85v-426.667c0.63-17.146 6.664-31.433 18.103-42.85s25.722-17.451 42.85-18.103h426.667c17.146 0.628 31.433 6.662 42.85 18.103s17.451 25.722 18.103 42.85h60.952zM390.095 813.714c-17.148-0.63-31.431-6.664-42.85-18.103s-17.452-25.722-18.103-42.85v-426.667c0.63-17.146 6.664-31.433 18.103-42.85s25.722-17.451 42.85-18.103h426.667c17.146 0.628 31.433 6.662 42.85 18.103s17.451 25.722 18.103 42.85v426.667c-0.628 17.148-6.662 31.431-18.103 42.85s-25.722 17.452-42.85 18.103h-426.667zM390.095 874.667h426.667c34.298-0.63 63.025-12.536 86.187-35.718s35.066-51.911 35.718-86.187v-426.667c-0.628-34.298-12.538-63.025-35.718-86.187s-51.913-35.066-86.187-35.718h-426.667c-34.296 0.628-63.025 12.538-86.187 35.718s-35.068 51.913-35.718 86.187v426.667c0.63 34.296 12.536 63.025 35.718 86.187s51.911 35.068 86.187 35.718z" />
<glyph unicode="&#xe943;" glyph-name="crop" d="M237.714 874.667c8.899 0 16.203-2.854 21.912-8.564s8.564-13.013 8.564-21.912l-0.030-91.422 518.126-0.006c8.899 0 16.201-2.854 21.912-8.564s8.564-13.013 8.564-21.912l-0.037-518.083 91.465-0.012c8.899 0 16.201-2.853 21.912-8.564s8.564-13.013 8.564-21.912c0-8.899-2.853-16.201-8.564-21.912s-13.013-8.564-21.912-8.564l-91.465 0.037 0.037-91.465c0-8.899-2.853-16.201-8.564-21.912s-13.013-8.564-21.912-8.564c-8.899 0-16.201 2.853-21.912 8.564s-8.564 13.013-8.564 21.912l-0.012 91.465-518.083-0.037c-8.899 0-16.203 2.853-21.912 8.564s-8.564 13.013-8.564 21.912l-0.006 518.126-91.422-0.030c-8.899 0-16.203 2.854-21.912 8.564s-8.564 13.013-8.564 21.912c0 8.899 2.854 16.203 8.564 21.912s13.013 8.564 21.912 8.564l91.422 0.006 0.006 91.422c0 8.899 2.854 16.203 8.564 21.912s13.013 8.564 21.912 8.564zM268.16 691.84l0.030-487.65 487.607 0.012 0.012 487.607-487.65 0.030z" />
<glyph unicode="&#xe944;" glyph-name="d-arrow-left" d="M530.512 865.466c6.721 6.133 14.566 9.201 23.534 9.201s16.814-3.448 23.534-10.341c6.721-6.895 10.081-14.942 10.081-24.142s-3.36-17.248-10.081-24.142l-349.787-368.022 349.787-368.022c6.721-6.897 10.081-15.14 10.081-24.731s-3.36-17.643-10.081-24.142c-6.72-6.499-14.566-9.767-23.534-9.79s-16.813 3.040-23.534 9.201l-371.097 392.164c-6.72 7.679-10.081 16.303-10.081 25.872s3.361 17.812 10.081 24.731l371.097 392.164zM817.517 865.466c6.723 6.133 14.566 9.201 23.534 9.201s16.811-3.448 23.534-10.341c6.723-6.895 10.081-14.942 10.081-24.142s-3.358-17.248-10.081-24.142l-349.787-368.022 349.787-368.022c6.723-6.897 10.081-15.14 10.081-24.731s-3.358-17.643-10.081-24.142c-6.723-6.499-14.566-9.767-23.534-9.79s-16.811 3.040-23.534 9.201l-371.097 392.164c-6.72 7.679-10.081 16.303-10.081 25.872s3.361 17.812 10.081 24.731l371.097 392.164z" />
<glyph unicode="&#xe945;" glyph-name="d-arrow-right" d="M446.419 865.467c6.721 6.133 14.566 9.2 23.534 9.2s16.813-3.067 23.534-9.2l371.097-392.148c6.723-6.894 10.081-15.334 10.081-25.319s-3.358-18.425-10.081-25.319l-371.097-392.148c-6.721-6.131-14.566-9.2-23.534-9.2s-16.813 3.445-23.534 10.341c-6.721 6.896-10.081 14.941-10.081 24.141s3.36 17.245 10.081 24.141l349.787 368.006-349.787 368.006c-6.721 6.893-10.081 14.941-10.081 24.141s3.36 17.639 10.081 25.319v0.037zM159.414 865.467c6.721 6.133 14.566 9.2 23.534 9.2s16.813-3.067 23.534-9.2l371.097-392.148c6.721-6.894 10.081-15.334 10.081-25.319s-3.36-18.425-10.081-25.319l-371.097-392.148c-6.721-6.131-14.566-9.2-23.534-9.2s-16.813 3.445-23.534 10.341c-6.721 6.896-10.081 14.941-10.081 24.141s3.36 17.245 10.081 24.141l349.787 368.006-349.787 368.006c-6.721 6.893-10.081 14.941-10.081 24.141s3.36 17.639 10.081 25.319v0.037z" />
<glyph unicode="&#xe946;" glyph-name="d-caret" d="M832 376.889l-320-355.556-320 355.556h640zM512 874.667l320-355.556h-640l320 355.556z" />
<glyph unicode="&#xe947;" glyph-name="data-analysis" d="M648.049 252.718l98.674-167.385h-65.792l-98.673 167.385h-140.459l-98.674-167.385h-65.792l98.674 167.385h-176.896c-8.306 0-15.123 2.611-20.452 7.839s-7.993 11.912-7.993 20.058v474.256h-56.889c-8.306 0-15.123 2.613-20.452 7.839s-7.993 11.912-7.993 20.058c0 8.146 2.664 14.832 7.993 20.058s12.146 7.839 20.452 7.839h796.444c8.306 0 15.127-2.613 20.452-7.839 5.33-5.226 7.993-11.912 7.993-20.058s-2.662-14.832-7.993-20.058c-5.325-5.226-12.146-7.839-20.452-7.839h-56.889v-474.256c0-8.146-2.663-14.83-7.993-20.058-5.325-5.228-12.146-7.839-20.452-7.839h-176.839zM796.501 754.872h-568.889v-446.359h568.889v446.359zM369.835 531.692c8.306 0 15.123-2.613 20.452-7.839s7.993-11.912 7.993-20.058v-55.795c0-8.146-2.664-14.832-7.993-20.058s-12.146-7.839-20.452-7.839c-8.306 0-15.123 2.613-20.452 7.839s-7.993 11.912-7.993 20.058v55.795c0 8.146 2.665 14.832 7.993 20.058s12.146 7.839 20.452 7.839zM512.057 587.487c8.306 0 15.123-2.613 20.452-7.839s7.993-11.912 7.993-20.058v-111.59c0-8.146-2.664-14.832-7.993-20.058s-12.146-7.839-20.452-7.839c-8.306 0-15.123 2.613-20.452 7.839s-7.993 11.912-7.993 20.058v111.59c0 8.146 2.665 14.832 7.993 20.058s12.146 7.839 20.452 7.839zM654.279 643.282c8.306 0 15.127-2.613 20.452-7.839 5.33-5.226 7.993-11.912 7.993-20.058v-167.385c0-8.146-2.662-14.832-7.993-20.058-5.325-5.226-12.146-7.839-20.452-7.839s-15.121 2.613-20.452 7.839c-5.325 5.226-7.993 11.912-7.993 20.058v167.385c0 8.146 2.668 14.832 7.993 20.058 5.33 5.226 12.146 7.839 20.452 7.839z" />
<glyph unicode="&#xe948;" glyph-name="data-board" d="M938.667 832v-59.077l-85.376 0.026 0.043-502.18c0-8.625-2.662-15.703-7.993-21.238s-12.146-8.3-20.452-8.3l-176.868 0.007 98.645-177.237h-65.792l-98.219 177.237h-141.397l-98.133-177.237h-65.792l98.56 177.237-176.782-0.007c-8.306 0-15.123 2.765-20.452 8.3s-7.993 12.613-7.993 21.238l-0.043 502.18-85.291-0.026v59.077h853.333zM796.444 772.923h-568.889v-472.615h568.889v472.615z" />
<glyph unicode="&#xe949;" glyph-name="data-line" d="M376.007 252.718h-176.896c-8.306 0-15.123 2.611-20.452 7.839s-7.993 11.912-7.993 20.058v474.256h-56.889c-8.306 0-15.123 2.613-20.452 7.839s-7.993 11.912-7.993 20.058c0 8.146 2.664 14.832 7.993 20.058s12.146 7.839 20.452 7.839h796.444c8.306 0 15.121-2.613 20.452-7.839s7.993-11.912 7.993-20.058c0-8.146-2.662-14.832-7.993-20.058s-12.146-7.839-20.452-7.839h-56.889v-474.256c0-8.146-2.662-14.83-7.993-20.058s-12.146-7.839-20.452-7.839h-176.896l98.674-167.385h-65.792l-98.674 167.385h-140.459l-98.674-167.385h-65.792l98.731 167.385zM796.444 754.872h-568.889v-446.359h568.889v446.359zM361.785 455.839c-5.935-5.226-12.753-7.839-20.452-7.839s-14.364 2.762-19.996 8.286c-5.632 5.524-8.448 12.061-8.448 19.612s2.664 14.237 7.993 20.058l131.556 128.161 111.104-81.963 96.882 118.564c7.111 8.722 16.145 12.359 27.108 10.908s18.364-7.263 22.215-17.436c3.851-10.173 2.219-19.621-4.892-28.344l-130.674-160.41-116.452 85.45-95.943-95.047z" />
<glyph unicode="&#xe94a;" glyph-name="date" d="M146.285 569.905v-487.619h731.429v670.476h-121.905v-30.476c0-8.889-2.859-16.191-8.57-21.905-5.717-5.714-13.019-8.571-21.906-8.571s-16.189 2.857-21.906 8.571c-5.711 5.714-8.57 13.016-8.57 21.905v30.476h-365.715v-30.476c0-8.889-2.857-16.191-8.572-21.905s-13.016-8.571-21.904-8.571c-8.889 0-16.191 2.857-21.905 8.571s-8.571 13.016-8.571 21.905v30.476h-121.905v-121.905h731.429v-60.952h-731.429zM329.143 813.714h365.714v30.476c0 8.889 2.859 16.19 8.57 21.905 5.717 5.714 13.019 8.571 21.906 8.571s16.189-2.857 21.906-8.571c5.711-5.715 8.57-13.016 8.57-21.905v-30.476h152.381c8.887 0 16.189-2.857 21.906-8.571 5.711-5.715 8.57-13.016 8.57-21.905v-731.429c0-8.887-2.859-16.189-8.57-21.906-5.717-5.711-13.019-8.57-21.906-8.57h-792.381c-8.889 0-16.19 2.859-21.905 8.57-5.714 5.717-8.571 13.019-8.571 21.906v731.429c0 8.889 2.857 16.19 8.571 21.905 5.715 5.714 13.016 8.571 21.905 8.571h152.381v30.476c0 8.889 2.857 16.19 8.571 21.905s13.016 8.571 21.905 8.571 16.19-2.857 21.904-8.571c5.714-5.715 8.572-13.016 8.572-21.905v-30.476zM298.665 448c-8.889 0-16.19-2.857-21.904-8.572s-8.572-13.016-8.572-21.904c0-8.889 2.857-16.191 8.572-21.905s13.016-8.571 21.904-8.571h60.952c8.889 0 16.191 2.857 21.905 8.571s8.571 13.016 8.571 21.905c0 8.889-2.857 16.19-8.571 21.904s-13.016 8.572-21.905 8.572h-60.952zM298.665 265.143c-8.889 0-16.19-2.859-21.904-8.57-5.714-5.717-8.572-13.019-8.572-21.906s2.857-16.189 8.572-21.906c5.714-5.711 13.016-8.57 21.904-8.57h60.952c8.889 0 16.191 2.859 21.905 8.57 5.714 5.717 8.571 13.019 8.571 21.906s-2.857 16.189-8.571 21.906c-5.714 5.711-13.016 8.57-21.905 8.57h-60.952zM481.526 448c-8.889 0-16.191-2.857-21.905-8.572s-8.571-13.016-8.571-21.904c0-8.889 2.857-16.191 8.571-21.905s13.016-8.571 21.905-8.571h60.952c8.889 0 16.19 2.857 21.904 8.571s8.572 13.016 8.572 21.905c0 8.889-2.857 16.19-8.572 21.904s-13.016 8.572-21.904 8.572h-60.952zM481.526 265.143c-8.889 0-16.191-2.859-21.905-8.57-5.714-5.717-8.571-13.019-8.571-21.906s2.857-16.189 8.571-21.906c5.714-5.711 13.016-8.57 21.905-8.57h60.952c8.889 0 16.19 2.859 21.904 8.57 5.714 5.717 8.572 13.019 8.572 21.906s-2.857 16.189-8.572 21.906c-5.714 5.711-13.016 8.57-21.904 8.57h-60.952zM664.381 448c-8.893 0-16.189-2.857-21.906-8.572-5.711-5.714-8.571-13.016-8.571-21.904s2.86-16.191 8.571-21.905c5.717-5.714 13.013-8.571 21.906-8.571h60.952c8.887 0 16.189 2.857 21.906 8.571 5.711 5.714 8.57 13.016 8.57 21.905s-2.859 16.19-8.57 21.904c-5.717 5.714-13.019 8.572-21.906 8.572h-60.952zM664.381 265.143c-8.893 0-16.189-2.859-21.906-8.57-5.711-5.717-8.571-13.019-8.571-21.906s2.86-16.189 8.571-21.906c5.717-5.711 13.013-8.57 21.906-8.57h60.952c8.887 0 16.189 2.859 21.906 8.57 5.711 5.717 8.57 13.019 8.57 21.906s-2.859 16.189-8.57 21.906c-5.717 5.711-13.019 8.57-21.906 8.57h-60.952z" />
<glyph unicode="&#xe94b;" glyph-name="delete-location" d="M512 874.667c96.98-2.54 177.462-35.241 241.447-98.103s97.28-141.908 99.887-237.135c0-127.776-91.836-280.153-275.512-457.126l151.391-0.017c20.685 0 31.030-10.161 31.030-30.476s-10.346-30.476-31.030-30.476h-434.424c-20.687 0-31.030 10.161-31.030 30.476s10.344 30.476 31.030 30.476l151.392 0.017c-183.675 176.974-275.513 329.351-275.513 457.126 2.586 95.248 35.882 174.293 99.887 237.135s144.488 95.543 241.447 98.103zM512 813.714c-78.879-1.91-144.653-28.739-197.322-80.488s-79.986-116.348-81.951-193.798c0-56.503 23.107-121.102 69.322-193.798 46.215-72.698 116.198-153.173 209.951-241.432 93.732 88.259 163.716 168.734 209.951 241.432 46.235 72.696 69.34 137.295 69.322 193.798-1.943 77.47-29.262 142.070-81.951 193.798s-118.463 78.557-197.322 80.488zM636.121 569.905c20.685 0 31.030-10.159 31.030-30.476s-10.346-30.476-31.030-30.476h-248.242c-20.687 0-31.030 10.159-31.030 30.476s10.344 30.476 31.030 30.476h248.242z" />
<glyph unicode="&#xe94c;" glyph-name="delete-solid" d="M359.619 752.762v91.429c0 8.899 2.854 16.203 8.564 21.912s13.013 8.564 21.912 8.564h243.81c8.899 0 16.201-2.854 21.912-8.564s8.564-13.013 8.564-21.912v-91.429h243.81c8.899 0 16.201-2.854 21.912-8.564s8.564-13.013 8.564-21.912c0-8.899-2.853-16.203-8.564-21.912s-13.013-8.564-21.912-8.564h-792.381c-8.899 0-16.203 2.854-21.912 8.564s-8.564 13.013-8.564 21.912c0 8.899 2.854 16.203 8.564 21.912s13.013 8.564 21.912 8.564h243.81zM420.571 752.762h182.857v60.952h-182.857v-60.952zM207.238 21.333c-8.899 0-16.203 2.853-21.912 8.564s-8.564 13.013-8.564 21.912v640h670.476v-640c0-8.899-2.853-16.201-8.564-21.912s-13.013-8.564-21.912-8.564h-609.524zM420.571 204.19c8.899 0 16.203 2.853 21.912 8.564s8.564 13.013 8.564 21.912v304.762c0 8.899-2.854 16.203-8.564 21.912s-13.013 8.564-21.912 8.564c-8.899 0-16.203-2.854-21.912-8.564s-8.564-13.013-8.564-21.912v-304.762c0-8.899 2.854-16.201 8.564-21.912s13.013-8.564 21.912-8.564zM603.429 204.19c8.899 0 16.203 2.853 21.912 8.564s8.564 13.013 8.564 21.912v304.762c0 8.899-2.854 16.203-8.564 21.912s-13.013 8.564-21.912 8.564c-8.899 0-16.203-2.854-21.912-8.564s-8.564-13.013-8.564-21.912v-304.762c0-8.899 2.854-16.201 8.564-21.912s13.013-8.564 21.912-8.564z" />
<glyph unicode="&#xe94d;" glyph-name="delete" d="M176.762 691.81h-60.952c-8.899 0-16.203 2.854-21.912 8.564s-8.564 13.013-8.564 21.912c0 8.899 2.854 16.203 8.564 21.912s13.013 8.564 21.912 8.564h243.81v91.429c0 8.899 2.854 16.203 8.564 21.912s13.013 8.564 21.912 8.564h243.81c8.899 0 16.201-2.854 21.912-8.564s8.564-13.013 8.564-21.912v-91.429h243.81c8.899 0 16.201-2.854 21.912-8.564s8.564-13.013 8.564-21.912c0-8.899-2.853-16.203-8.564-21.912s-13.013-8.564-21.912-8.564h-60.952v-640c0-8.899-2.853-16.201-8.564-21.912s-13.013-8.564-21.912-8.564h-609.524c-8.899 0-16.203 2.853-21.912 8.564s-8.564 13.013-8.564 21.912v640zM603.429 752.762v60.952h-182.857v-60.952h182.857zM237.714 82.286h548.571v609.524h-548.571v-609.524zM420.571 204.19c-8.899 0-16.203 2.853-21.912 8.564s-8.564 13.013-8.564 21.912v304.762c0 8.899 2.854 16.203 8.564 21.912s13.013 8.564 21.912 8.564c8.899 0 16.203-2.854 21.912-8.564s8.564-13.013 8.564-21.912v-304.762c0-8.899-2.854-16.201-8.564-21.912s-13.013-8.564-21.912-8.564zM603.429 204.19c-8.899 0-16.203 2.853-21.912 8.564s-8.564 13.013-8.564 21.912v304.762c0 8.899 2.854 16.203 8.564 21.912s13.013 8.564 21.912 8.564c8.899 0 16.203-2.854 21.912-8.564s8.564-13.013 8.564-21.912v-304.762c0-8.899-2.854-16.201-8.564-21.912s-13.013-8.564-21.912-8.564z" />
<glyph unicode="&#xe94e;" glyph-name="discount" d="M250.182 258.017h523.636v356.889l-224.553 186.773c-11.52 9.25-23.942 13.876-37.265 13.876s-25.745-4.625-37.265-13.876l-224.553-186.773v-356.889zM250.182 198.846v-118.342h523.636v118.342h-523.636zM585.629 847.862l235.462-196.004c7.273-6.173 10.909-13.876 10.909-23.106v-577.833c0-8.639-2.723-15.728-8.175-21.272s-12.422-8.314-20.916-8.314h-581.818c-8.495 0-15.466 2.769-20.916 8.314s-8.175 12.633-8.175 21.272v577.833c0 9.25 3.636 16.952 10.909 23.106l235.462 196.004c22.419 17.87 46.963 26.804 73.629 26.804s51.21-8.935 73.629-26.804v0zM512 494.7c16.368 0.611 30.003 6.469 40.902 17.574s16.359 24.97 16.378 41.597c0.019 16.627-5.44 30.493-16.378 41.597s-24.572 16.657-40.902 16.657c-16.33 0-29.964-5.552-40.902-16.657s-16.397-24.97-16.378-41.597c0.019-16.627 5.479-30.493 16.378-41.597s24.534-16.963 40.902-17.574v0zM512 435.529c-32.737 0.611-60.16 12.17-82.269 34.674s-33.474 50.394-34.095 83.668c0.601 33.294 11.966 61.183 34.095 83.668s49.552 34.043 82.269 34.674c32.737-0.611 60.16-12.17 82.269-34.674s33.474-50.394 34.095-83.668c-0.601-33.294-11.966-61.183-34.095-83.668s-49.552-34.043-82.269-34.674z" />
<glyph unicode="&#xe94f;" glyph-name="discover" d="M512 82.286c103.497 2.542 189.684 38.26 258.56 107.154s104.594 155.083 107.154 258.56c-2.542 103.497-38.26 189.684-107.154 258.56s-155.083 104.594-258.56 107.154c-103.497-2.54-189.684-38.258-258.56-107.154s-104.594-155.083-107.154-258.56c2.54-103.497 38.258-189.684 107.154-258.56s155.083-104.594 258.56-107.154zM512 21.333c-120.645 3.17-221.125 44.91-301.44 125.227s-122.057 180.795-125.227 301.44c3.17 120.645 44.912 221.125 125.227 301.44s180.795 122.057 301.44 125.227c120.645-3.17 221.123-44.912 301.44-125.227s122.057-180.795 125.227-301.44c-3.17-120.645-44.91-221.123-125.227-301.44s-180.795-122.057-301.44-125.227v0zM715.825 635.611c-46.994-108.576-96.995-189.216-150.004-241.92s-133.486-102.54-241.432-149.516c-5.079-1.908-9.529-0.954-13.349 2.865-3.82 3.822-4.774 8.271-2.865 13.349 46.994 107.947 96.833 188.262 149.516 240.945s133.323 102.847 241.92 150.491c5.077 1.91 9.527 0.955 13.349-2.865 3.819-3.82 4.773-8.269 2.865-13.349v0z" />
<glyph unicode="&#xe950;" glyph-name="dish-1" d="M390.095 660.152v48.968c1.28 34.57 13.349 63.529 36.206 86.876s51.433 35.348 85.73 36.004c34.296-0.635 62.872-12.472 85.73-35.512s34.926-52.163 36.206-87.368v-48.015c102.869-33.28 181.912-93.604 237.135-180.972s76.178-185.131 62.872-293.284h-843.825c-13.978 108.153 6.816 205.916 62.385 293.284s134.776 147.364 237.623 179.988l-0.061 0.031zM115.81 125.44h792.381c8.899 0 16.201-2.875 21.912-8.632s8.564-13.117 8.564-22.088c0-8.97-2.853-16.331-8.564-22.088s-13.013-8.632-21.912-8.632h-792.381c-8.899 0-16.203 2.875-21.912 8.632s-8.564 13.117-8.564 22.088c0 8.97 2.854 16.331 8.564 22.088s13.013 8.632 21.912 8.632zM146.286 248.32h731.429c-2.542 104.325-38.26 191.201-107.154 260.628s-155.083 105.431-258.56 108.012c-103.497-2.56-189.684-38.564-258.56-108.012s-104.594-156.324-107.154-260.628zM572.952 678.4v30.72c-0.63 17.285-6.664 31.683-18.103 43.192s-25.722 17.275-42.85 17.295c-17.128 0.020-31.411-5.745-42.85-17.295s-17.473-25.948-18.103-43.192v-30.72h121.905z" />
<glyph unicode="&#xe951;" glyph-name="dish" d="M481.588 674.674v57.771h-91.326c-8.889 0-16.185 2.664-21.888 7.993s-8.554 12.146-8.554 20.452c0 8.306 2.852 15.123 8.554 20.452s12.999 7.993 21.888 7.993h243.536c8.889 0 16.183-2.664 21.888-7.993 5.699-5.329 8.554-12.146 8.554-20.452s-2.855-15.123-8.554-20.452c-5.705-5.329-12.999-7.993-21.888-7.993h-91.327v-57.771c59.626-4.153 115.437-18.972 167.432-44.459s96.702-60.008 134.127-103.566c37.425-43.558 63.898-91.705 79.423-144.441s19.166-106.667 10.929-161.792h-844.764c-8.24 55.108-4.597 109.039 10.929 161.792 15.525 52.755 42 100.902 79.423 144.441s82.132 78.061 134.127 103.566c51.995 25.505 107.805 40.325 167.43 44.459h0.061zM146.727 277.333h730.607c-2.539 96.597-38.217 177.038-107.034 241.323-68.823 64.284-154.91 97.621-258.27 100.011-103.381-2.371-189.47-35.707-258.269-100.011s-104.477-144.744-107.034-241.323zM116.286 163.556h791.491c8.889 0 16.183-2.662 21.888-7.993s8.554-12.146 8.554-20.452c0-8.306-2.849-15.121-8.554-20.452s-12.999-7.993-21.888-7.993h-791.491c-8.889 0-16.185 2.662-21.888 7.993s-8.554 12.146-8.554 20.452c0 8.306 2.852 15.121 8.554 20.452s12.999 7.993 21.888 7.993z" />
<glyph unicode="&#xe952;" glyph-name="document-add" d="M814.222 569.905h-241.778v243.81h-362.667v-731.429h604.444v487.619zM789.682 630.857l-156.793 158.11v-158.11h156.793zM179.556 874.667h453.333l241.778-243.81v-579.048c0-8.899-2.829-16.201-8.492-21.912s-12.905-8.564-21.73-8.564h-664.889c-8.825 0-16.068 2.853-21.73 8.564s-8.492 13.013-8.492 21.912v792.381c0 8.899 2.831 16.203 8.492 21.912s12.905 8.564 21.73 8.564zM481.778 387.048v121.905h60.444v-121.905h120.889v-60.952h-120.889v-121.905h-60.444v121.905h-120.889v60.952h120.889z" />
<glyph unicode="&#xe953;" glyph-name="document-checked" d="M789.682 630.857l-156.793 158.11v-158.11h156.793zM814.222 569.905h-241.778v243.81h-362.667v-731.429h604.444v487.619zM179.556 874.667h453.333l241.778-243.81v-579.048c0-8.899-2.829-16.201-8.492-21.912s-12.905-8.564-21.73-8.564h-664.889c-8.825 0-16.068 2.853-21.73 8.564s-8.492 13.013-8.492 21.912v792.381c0 8.899 2.831 16.203 8.492 21.912s12.905 8.564 21.73 8.564zM479.904 320.366l170.937 172.373 43.46-42.85-214.396-216.198-149.237 151.436 42.492 42.85 106.745-107.611z" />
<glyph unicode="&#xe954;" glyph-name="document-copy" d="M146.286 630.857v-548.571h548.571v548.571h-548.571zM115.81 691.81h609.524c8.899 0 16.201-2.854 21.912-8.564s8.564-13.013 8.564-21.912v-609.524c0-8.899-2.853-16.201-8.564-21.912s-13.013-8.564-21.912-8.564h-609.524c-8.899 0-16.203 2.853-21.912 8.564s-8.564 13.013-8.564 21.912v609.524c0 8.899 2.854 16.203 8.564 21.912s13.013 8.564 21.912 8.564zM938.667 844.19v-670.476c0-8.899-2.853-16.201-8.564-21.912s-13.013-8.564-21.912-8.564h-91.429v60.952h60.952v609.524h-487.619v-60.952h-60.952v91.429c0 8.899 2.854 16.203 8.564 21.912s13.013 8.564 21.912 8.564h548.571c8.899 0 16.201-2.854 21.912-8.564s8.564-13.013 8.564-21.912zM268.19 295.619h304.762v-60.952h-304.762v60.952zM268.19 478.476h304.762v-60.952h-304.762v60.952z" />
<glyph unicode="&#xe955;" glyph-name="document-delete" d="M789.682 630.857l-156.793 158.11v-158.11h156.793zM814.222 569.905h-241.778v243.81h-362.667v-731.429h604.444v487.619zM179.556 874.667h453.333l241.778-243.81v-579.048c0-8.899-2.829-16.201-8.492-21.912s-12.905-8.564-21.73-8.564h-664.889c-8.825 0-16.068 2.853-21.73 8.564s-8.492 13.013-8.492 21.912v792.381c0 8.899 2.831 16.203 8.492 21.912s12.905 8.564 21.73 8.564zM471.381 354.651l-85.952 85.73 43.46 43.825 85.015-86.674 85.952 86.674 42.492-43.825-85.015-85.73 85.015-86.674-42.492-42.85-85.952 85.73-85.015-85.73-43.46 42.85 85.952 86.674z" />
<glyph unicode="&#xe956;" glyph-name="document-remove" d="M789.682 630.857l-156.793 158.11v-158.11h156.793zM814.222 569.905h-241.778v243.81h-362.667v-731.429h604.444v487.619zM179.556 874.667h453.333l241.778-243.81v-579.048c0-8.899-2.829-16.201-8.492-21.912s-12.905-8.564-21.73-8.564h-664.889c-8.825 0-16.068 2.853-21.73 8.564s-8.492 13.013-8.492 21.912v792.381c0 8.899 2.831 16.203 8.492 21.912s12.905 8.564 21.73 8.564zM360.889 387.048h302.222v-60.952h-302.222v60.952z" />
<glyph unicode="&#xe957;" glyph-name="document" d="M814.222 569.905h-241.778v243.81h-362.667v-731.429h604.444v487.619zM789.682 630.857l-156.793 158.11v-158.11h156.793zM179.556 874.667h453.333l241.778-243.81v-579.048c0-8.899-2.829-16.201-8.492-21.912s-12.905-8.564-21.73-8.564h-664.889c-8.825 0-16.068 2.853-21.73 8.564s-8.492 13.013-8.492 21.912v792.381c0 8.899 2.831 16.203 8.492 21.912s12.905 8.564 21.73 8.564zM330.667 448h362.667v-60.952h-362.667v60.952zM330.667 630.857h151.111v-60.952h-151.111v60.952zM330.667 265.143h362.667v-60.952h-362.667v60.952z" />
<glyph unicode="&#xe958;" glyph-name="download" d="M120.889 92.481h782.222c10.382 0 18.901-3.335 25.564-9.991 6.663-6.663 9.991-15.182 9.991-25.564s-3.328-18.908-9.991-25.564c-6.663-6.663-15.182-9.991-25.564-9.991h-782.222c-10.382 0-18.903 3.328-25.564 9.991-6.661 6.656-9.991 15.182-9.991 25.564s3.33 18.901 9.991 25.564c6.661 6.656 15.182 9.991 25.564 9.991zM547.556 374.684l262.222 262.222 51.129-49.991-352.213-352.212-352.213 352.212 49.991 49.991 270.009-270.009v507.769h71.111v-500.018l-0.036 0.036z" />
<glyph unicode="&#xe959;" glyph-name="edit-outline" d="M843.852 435.087c0 10.068 3.227 18.331 9.688 24.791s14.722 9.689 24.79 9.689c10.068 0 18.329-3.229 24.79-9.689s9.688-14.723 9.688-24.791v-379.274c0-10.068-3.227-18.329-9.688-24.791s-14.722-9.689-24.79-9.689h-758.519c-10.068 0-18.331 3.227-24.79 9.689s-9.688 14.723-9.688 24.791v758.548c0 10.068 3.229 18.331 9.688 24.791s14.722 9.689 24.79 9.689h379.259c10.068 0 18.331-3.229 24.79-9.689s9.688-14.723 9.688-24.791c0-10.068-3.229-18.331-9.688-24.791s-14.722-9.689-24.79-9.689h-344.781v-689.589h689.562v344.794zM453.835 389.816l57.096 7.551 349.091 350.174c9.33 9.332 12.391 20.286 9.171 32.859s-11.295 20.653-24.238 24.239c-12.943 3.586-24.080 0.712-33.409-8.62l-350.16-349.105-7.551-57.098zM908.498 844.532c20.115-20.113 30.168-44.352 30.168-72.717s-10.054-52.972-30.168-73.821l-356.642-356.656c-5.746-5.746-12.573-9.344-20.48-10.792l-113.123-16.171c-11.493-1.448-21.192 1.965-29.1 10.24s-11.136 18.148-9.688 29.618l16.17 113.127c0.712 7.908 3.942 14.378 9.688 19.412l357.71 357.725c20.825 20.113 45.063 30.17 72.714 30.17s51.89-10.056 72.714-30.17l0.034 0.034z" />
<glyph unicode="&#xe95a;" glyph-name="edit1" d="M215.7 290.624l179.092-103.996 206.769 360.273-179.092 103.996-206.769-360.273zM193.546 234.912l30.454-137.424 133.839 42.728-164.293 94.696zM452.007 702.895l179.092-103.996 52.608 91.012-179.092 103.996-52.608-91.012zM128 257.197l354.462 617.47 281.531-163.423-354.462-617.47-228.923-72.441-52.608 235.863zM482.462 21.333v59.426h413.538v-59.426h-413.538z" />
<glyph unicode="&#xe95b;" glyph-name="error" d="M512 874.667c235.642 0 426.667-191.025 426.667-426.667s-191.025-426.667-426.667-426.667c-235.641 0-426.667 191.025-426.667 426.667s191.025 426.667 426.667 426.667zM624.977 619.053l-113.212-114.459-113.212 114.459c-8.398 7.54-18.044 11.309-28.937 11.309s-20.324-3.984-28.293-11.953c-7.969-7.969-11.953-17.4-11.953-28.293s3.769-20.539 11.309-28.937l114.459-113.212-114.459-113.131c-7.54-8.398-11.309-18.044-11.309-28.937s3.984-20.324 11.953-28.293c7.969-7.969 17.4-11.953 28.293-11.953s20.539 3.767 28.937 11.309l113.212 114.459 113.212-114.459c11.725-10.923 24.926-14.271 39.602-10.061s24.109 13.643 28.294 28.293c4.186 14.65 0.829 27.85-10.061 39.602l-114.461 113.212 114.461 113.212c10.915 11.725 14.271 24.926 10.061 39.602-4.218 14.676-13.643 24.107-28.294 28.293s-27.85 0.831-39.602-10.061z" />
<glyph unicode="&#xe95c;" glyph-name="etc" d="M626.552 874.667l226.781-228.943-1.673-601.271c0.231-6.342-2.135-12.338-6.463-16.72-4.097-4.036-9.752-6.4-15.638-6.4v0h-635.852c-6.809 0-12.522 2.364-16.677 6.457-4.212 4.324-6.578 10.32-6.348 16.431v0 807.383c0 6.861 2.077 12.338 6.405 16.662 4.155 4.036 9.81 6.4 15.696 6.4v0h433.769zM216.904 828.544v-761.030h588.534v559.414l-200.756 199.943-387.778 1.672zM696.243 254.035v-42.26h-368.447v42.26h368.447zM696.243 386.927v-42.26h-368.447v42.26h368.447zM518.396 519.819v-42.26h-190.6v42.26h190.6z" />
<glyph unicode="&#xe95d;" glyph-name="facebook" d="M981.333 445.131c0 260.79-210.128 472.203-469.333 472.203s-469.333-211.412-469.333-472.203c0-235.69 171.628-431.042 396-466.464v329.968h-119.167v136.496h119.167v104.032c0 118.346 70.069 183.716 177.273 183.716 51.351 0 105.060-9.223 105.060-9.223v-116.206h-59.183c-58.302 0-76.484-36.399-76.484-73.742v-88.578h130.167l-20.808-136.496h-109.358v-329.968c224.372 35.422 396 230.774 396 466.464z" />
</font>
</defs>
</svg>
